Последний романтик планеты Земля / Les derniers jours du monde (Арно Ларьё / Arnaud Larrieu, Жан-Мари Ларьё / Jean-Marie Larrieu) [2009, Франция, Испания, фантастика, HDTV 1080i] MVO + Original Fre


 

[Цитировать]

Последний романтик планеты Земля / Les derniers jours du monde Название: Последний романтик планеты Земля
Оригинальное название: Les derniers jours du monde
Год выпуска: 2009
Страна: Франция, Испания
Жанр: фантастика
Продолжительность: 02:08:16
Перевод: профессиональный (многоголосый закадровый), Selena International Film Company
Оригинальная аудиодорожка: французский
Русские субтитры: нет
Навигация по главам: нет-Режиссер: Арно Ларьё / Arnaud Larrieu, Жан-Мари Ларьё / Jean-Marie Larrieu
В ролях: Матье Амальрик, Катрин Фро, Карин Вьяр, Серхи Лопес, Клотильда Эсме, Омайра, Сабин Азема, Пьер Пелле, Мэнон Бодуан, Серж Бозон
Описание: Конец света близок - об этом уже объявили по радио. В сводках новостей сообщают, что на Токио сброшена бомба, по Парижу нанесен ракетный удар, но Робинсон, кажется, не замечает всеобщей паники. Посреди этого кошмара он ищет девушку, которая стала для него наваждением и мечтой. В погоне за ней он мог погибнуть десятки раз - ему ли бояться апокалипсиса?! Он колесит по всей Европе, чтобы обнять ее в последний раз!-Качество: HDTV 1080i (Interlaced video)
Формат: MKV
Видео кодек: AVC, L4.0
Аудио кодек: AC3
Видео: 1440x1080i@1920x1080i; 25 fps; ~ 3860 Kbps
Аудио #1: Русский; AC3, 192 Kbps, 48 kHz, 2 ch | MVO (Selena International Film Company)
Аудио #2: Французский; AC3, 192 Kbps, 48 kHz, 2 ch | Оригинал
Субтитры: Английские (SRT)
Дополнительная информация: Запись HDTV трансляции скачана с "забугорного" сайта.
Скачать сэмпл - http://multi-up.com/942559

MediaInfo

General
Unique ID : 242425460767913089489881922107468279279 (0xB6617206E14454069068B20C5BD9EDEF)
Complete name : E:\MyRazd\Les derniers jours du monde.2009.HDTV.1080i.mkv
Format : Matroska
Format version : Version 4 / Version 2
File size : 3.88 GiB
Duration : 2h 8mn
Overall bit rate mode : Variable
Overall bit rate : 4 330 Kbps
Movie name : Les derniers jours du monde.2009
Encoded date : UTC 2014-01-21 09:54:18
Writing application : mkvmerge v6.2.0 ('Promised Land') built on Apr 28 2013 12:22:01
Writing library : libebml v1.3.0 + libmatroska v1.4.0
Video
ID : 1
Format : AVC
Format/Info : Advanced Video Codec
Format profile : High@L4.0
Format settings, CABAC : Yes
Format settings, ReFrames : 4 frames
Codec ID : V_MPEG4/ISO/AVC
Duration : 2h 8mn
Bit rate mode : Variable
Bit rate : 3 860 Kbps
Maximum bit rate : 40.0 Mbps
Width : 1 440 pixels
Height : 1 080 pixels
Display aspect ratio : 16:9
Frame rate : 25.000 fps
Color space : YUV
Chroma subsampling : 4:2:0
Bit depth : 8 bits
Scan type : MBAFF
Bits/(Pixel*Frame) : 0.099
Stream size : 3.46 GiB (89%)
Title : Les derniers jours du monde.2009.HDTV.1080i
Language : French
Default : Yes
Forced : No
Audio #1
ID : 2
Format : AC-3
Format/Info : Audio Coding 3
Mode extension : CM (complete main)
Codec ID : A_AC3
Duration : 2h 8mn
Bit rate mode : Constant
Bit rate : 192 Kbps
Channel(s) : 2 channels
Channel positions : Front: L R
Sampling rate : 48.0 KHz
Bit depth : 16 bits
Compression mode : Lossy
Stream size : 176 MiB (4%)
Title : MVO (Selena International Film Company)
Language : Russian
Default : Yes
Forced : No
Audio #2
ID : 3
Format : AC-3
Format/Info : Audio Coding 3
Mode extension : CM (complete main)
Codec ID : A_AC3
Duration : 2h 8mn
Bit rate mode : Constant
Bit rate : 192 Kbps
Channel(s) : 2 channels
Channel positions : Front: L R
Sampling rate : 48.0 KHz
Bit depth : 16 bits
Compression mode : Lossy
Stream size : 176 MiB (4%)
Title : Original
Language : French
Default : No
Forced : No
Text
ID : 4
Format : UTF-8
Codec ID : S_TEXT/UTF8
Codec ID/Info : UTF-8 Plain Text
Language : English
Default : No
Forced : No

Скриншоты




Показать сообщения:    

Текущее время: 09-Дек 20:27

Часовой пояс: UTC + 3


Вы не можете начинать темы
Вы не можете отвечать на сообщения
Вы не можете редактировать свои сообщения
Вы не можете удалять свои сообщения
Вы не можете голосовать в опросах
Вы не можете прикреплять файлы к сообщениям
Вы не можете скачивать файлы