Однажды в Анатолии / Bir Zamanlar Anadolu'da / Once Upon a Time in Anatolia (Нури Бильге Джейлан / Nuri Bilge Ceylan) [2011, Турция, Босния и Герцеговина, драма, криминал, BDRemux 1080i] MVO + Sub Rus, Eng + Original Tur


 

[Цитировать]

Однажды в Анатолии / Bir Zamanlar Anadolu'da / Once Upon a Time in Anatolia- Год выпуска: 2011
Страна: Турция, Босния и Герцеговина
Жанр: драма, криминал
Продолжительность: 2:31:08
Перевод: Профессиональный (многоголосый закадровый)
Субтитры: русские (R5, Aigak), английские-Режиссер: Нури Бильге Джейлан / Nuri Bilge Ceylan
В ролях: Мухаммет Узунер, Йилмаз Эрдоган, Танер Бирсель, Ахмет Мумтаз Тайлан, Фират Таниш, Эркан Кесаль, Эроль Эрарслан, Мурат Кылыч, Шафак Карали, Угур Асланоглу
Описание:
Жизнь в маленьком провинциальном городке похожа на долгое путешествие по степным просторам: ждешь, что за следующим холмом откроется что-то новое, другое, а видишь только те же самые степные дороги, похожие друг на друга, одинаково бесконечно тянущиеся к горизонту…-Качество: BDRemux 1080i - DVD9
Контейнер: MKV
Видео: MPEG-4 AVC / 23685 kbps / 1080i / 25 fps / 16:9 / High Profile 4.1
Аудио 1: Russian: Dolby Digital Audio / 224 kbps / 2.0 / 48 kHz
Аудио 2: Turkish: DTS-HD Master Audio / 2474 kbps / 5.1 / 48 kHz / 16-bit (DTS Core: 5.1/48 kHz/1509 kbps/16-bit)
Формат субтитров: softsub (SRT)- -Sample-

MediaInfo

General
Unique ID                                : 253768951110219776809014257120592779535 (0xBEEA1F47D632ED6B8E584FC58B77D90F)
Complete name                            : I:\Фильмы\Once.Upon.a.Time.in.Anatolia.2011.1080i.BDRemux.AVC.mkv
Format                                   : Matroska
Format version                           : Version 2
File size                                : 27.9 GiB
Duration                                 : 2h 31mn
Overall bit rate mode                    : Variable
Overall bit rate                         : 26.4 Mbps
Encoded date                             : UTC 2012-06-06 19:54:26
Writing application                      : mkvmerge v5.6.0 ('Kenya Kane') built on May 27 2012 16:44:04
Writing library                          : libebml v1.2.3 + libmatroska v1.3.0
Video
ID                                       : 1
Format                                   : AVC
Format/Info                              : Advanced Video Codec
Format profile                           : High@L4.1
Format settings, CABAC                   : Yes
Format settings, ReFrames                : 2 frames
Format settings, GOP                     : M=2, N=12
Muxing mode                              : Container profile=Unknown@0.0
Codec ID                                 : V_MPEG4/ISO/AVC
Duration                                 : 2h 31mn
Bit rate mode                            : Constant
Bit rate                                 : 24.0 Mbps
Nominal bit rate                         : 30.0 Mbps
Width                                    : 1 920 pixels
Height                                   : 1 080 pixels
Display aspect ratio                     : 16:9
Frame rate                               : 25.000 fps
Standard                                 : PAL
Color space                              : YUV
Chroma subsampling                       : 4:2:0
Bit depth                                : 8 bits
Scan type                                : Interlaced
Scan order                               : Top Field First
Bits/(Pixel*Frame)                       : 0.464
Stream size                              : 25.4 GiB (91%)
Title                                    : Bir Zamanlar Anadolu'da (2011)
Language                                 : Turkish
Color primaries                          : BT.709-5, BT.1361, IEC 61966-2-4, SMPTE RP177
Transfer characteristics                 : BT.709-5, BT.1361
Matrix coefficients                      : BT.709-5, BT.1361, IEC 61966-2-4 709, SMPTE RP177
Audio #1
ID                                       : 2
Format                                   : AC-3
Format/Info                              : Audio Coding 3
Mode extension                           : CM (complete main)
Codec ID                                 : A_AC3
Duration                                 : 2h 31mn
Bit rate mode                            : Constant
Bit rate                                 : 224 Kbps
Channel(s)                               : 2 channels
Channel positions                        : Front: L R
Sampling rate                            : 48.0 KHz
Bit depth                                : 16 bits
Compression mode                         : Lossy
Stream size                              : 242 MiB (1%)
Title                                    : Dolby Digital Audio / 2.0 / 224 kbps | R5
Language                                 : Russian
Audio #2
ID                                       : 3
Format                                   : DTS
Format/Info                              : Digital Theater Systems
Format profile                           : MA / Core
Codec ID                                 : A_DTS
Duration                                 : 2h 31mn
Bit rate mode                            : Variable
Bit rate                                 : 1 585 Kbps / 1 510 Kbps
Channel(s)                               : 6 channels
Channel positions                        : Front: L C R, Side: L R, LFE
Sampling rate                            : 48.0 KHz
Bit depth                                : 16 bits
Compression mode                         : Lossless / Lossy
Title                                    : DTS-HD Master Audio / 5.1 / 2474 kbps / 16-bit
Language                                 : Turkish
Text #1
ID                                       : 4
Format                                   : UTF-8
Codec ID                                 : S_TEXT/UTF8
Codec ID/Info                            : UTF-8 Plain Text
Title                                    : R5
Language                                 : Russian
Text #2
ID                                       : 5
Format                                   : UTF-8
Codec ID                                 : S_TEXT/UTF8
Codec ID/Info                            : UTF-8 Plain Text
Title                                    : Aigak
Language                                 : Russian
Text #3
ID                                       : 6
Format                                   : UTF-8
Codec ID                                 : S_TEXT/UTF8
Codec ID/Info                            : UTF-8 Plain Text
Language                                 : English
Menu
00:00:00.000                             : en:00:00:00.000
00:21:27.960                             : en:00:21:27.960
00:34:49.440                             : en:00:34:49.440
00:53:17.639                             : en:00:53:17.639
01:08:00.880                             : en:01:08:00.880
01:19:36.520                             : en:01:19:36.520
01:45:08.680                             : en:01:45:08.680
02:00:07.840                             : en:02:00:07.840
02:16:53.360                             : en:02:16:53.360

Скриншоты


-



Показать сообщения:    

Текущее время: 20-Янв 17:01

Часовой пояс: UTC + 3


Вы не можете начинать темы
Вы не можете отвечать на сообщения
Вы не можете редактировать свои сообщения
Вы не можете удалять свои сообщения
Вы не можете голосовать в опросах
Вы не можете прикреплять файлы к сообщениям
Вы не можете скачивать файлы