Легенда о Каспаре Хаузере / The Legend of Kaspar Hauser / La leggenda di Kaspar Hauser (Давид Манули / Davide Manuli) [2012, Италия, драма, детектив, BDRip 1080p] Sub Rus, Ger + Original Ita


 

[Цитировать]

Легенда о Каспаре Хаузере / The Legend of Kaspar Hauser / La leggenda di Kaspar Hauser
Страна: Италия
Жанр: драма, детектив
Год выпуска: 2012
Продолжительность: 01:34:59
Перевод: Субтитры
Cубтитры: русские, немецкие
Оригинальная аудиодорожка: английский, итальянский, французский
Режиссер: Давид Манули / Davide Manuli
В ролях: Винсент Галло, Клаудия Джерини, Элиза Сенауи, Фабрицио Джифуни, Сильвия Калдерони, Марко Лампис
Описание: Сюрреалистическая черно-белая лента, снятая в духе постмодернистского вестерна, с Винсентом Галло в ролях ширифа и наркоторговца и Сильвией Кальдерони в роли самого Каспара. Неожиданный пересказ ключевой для романтизма начала XIX века и модернизма 70-х биографии Каспара Хаузера – трикстера, эстета и самозванца.
На визуальный ряд фильма режиссера вдохновили картины Джармуша, Тарковского и Годара. Фильм сопровождается энергичным футуристическим саундтреком, написанным французским ди-джеем Vitalic.
Доп. информация: Немного об историческом Каспаре Хаузере. Ка́спар Ха́узер (нем. Kaspar Hauser / Casparus Hauser), прозванный «Дитя Европы» — известный своей таинственной судьбой найдёныш, одна из загадок XIX века. Юноша, практически не умевший ходить и говорить, был найден в Нюрнберге, в Троицын день 1828 года, убит неизвестным пять лет спустя. Несмотря на все усилия и огромную награду, назначенную баварским королём, ни подлинное имя, ни происхождение Каспара, ни причину его убийства, ни личность убийцы установить так и не удалось.
По рассказам самого Каспара, Замок Бойгген, неподалёку от Базеля, и звучание венгерского и немецкого языков вызывали у него смутные воспоминания детства, при том что в возрасте 3 или 4 лет юный Каспар был заключён неизвестным в подземную камеру, где в полном одиночестве жил до шестнадцати лет, пока не был найден и доставлен в Нюрнберг. Народная молва упорно считала Каспара наследным принцем баденского престола, похищенным из колыбели (официально «умершим»), чей трон занял узурпатор. Окончательного ответа, кем был на самом деле Каспар Хаузер, нет до нынешнего времени.
Сэмпл: http://rusfolder.com/39512961
Качество видео: BDRip (The.Legend.of.Kaspar.Hauser.2012.1080p.BluRay.x264-iFPD)
Формат видео: MKV
Видео: MPEG4 Video (H264) 10889kbps 1920x1040 24fps
Аудио: Dolby AC3 48000Hz 6ch 640kbps
Формат субтитров: softsub (SRT)

MediaInfo

Общее
Уникальный идентификатор : 233076915820795935998258729022163717519 (0xAF58FB2CCEE87311B1737090485F0D8F)
Полное имя : D:\Video\The.Legend.of.Kaspar.Hauser.2012.1080p.BluRay.x264-iFPD [PublicHD]\The.Legend.of.Kaspar.Hauser.2012.1080p.BluRay.x264-iFPD [PublicHD].mkv
Формат : Matroska
Версия формата : Version 4 / Version 2
Размер файла : 7,64 Гбайт
Продолжительность : 1 ч. 34 м.
Общий поток : 11,5 Мбит/сек
Дата кодирования : UTC 2014-01-15 22:15:06
Программа кодирования : mkvmerge v6.7.0 ('Back to the Ground') 32bit built on Jan 8 2014 15:03:17
Библиотека кодирования : libebml v1.3.0 + libmatroska v1.4.1
Видео
Идентификатор : 2
Формат : AVC
Формат/Информация : Advanced Video Codec
Профиль формата : High@L4.1
Параметр CABAC формата : Да
Параметр ReFrames формата : 4 кадра
Идентификатор кодека : V_MPEG4/ISO/AVC
Продолжительность : 1 ч. 34 м.
Битрейт : 10,9 Мбит/сек
Ширина : 1920 пикселей
Высота : 1040 пикселей
Соотношение сторон : 1,85:1
Режим частоты кадров : Постоянный
Частота кадров : 24,000 кадра/сек
Цветовое пространство : YUV
Субдискретизация насыщенности : 4:2:0
Битовая глубина : 8 бит
Тип развёртки : Прогрессивная
Бит/(Пиксели*Кадры) : 0.227
Размер потока : 7,06 Гбайт (92%)
Заголовок : The Legend of Kaspar Hauser (2012)
Библиотека кодирования : x264 core 140 r2377 1ca7bb9
Настройки программы : cabac=1 / ref=4 / deblock=1:-3:-3 / analyse=0x3:0x113 / me=umh / subme=7 / psy=1 / psy_rd=1.00:0.00 / mixed_ref=1 / me_range=16 / chroma_me=1 / trellis=1 / 8x8dct=1 / cqm=0 / deadzone=21,11 / fast_pskip=0 / chroma_qp_offset=-2 / threads=10 / lookahead_threads=1 / sliced_threads=0 / nr=0 / decimate=1 / interlaced=0 / bluray_compat=0 / constrained_intra=0 / bframes=3 / b_pyramid=2 / b_adapt=1 / b_bias=0 / direct=3 / weightb=1 / open_gop=0 / weightp=2 / keyint=250 / keyint_min=24 / scenecut=40 / intra_refresh=0 / rc_lookahead=40 / rc=2pass / mbtree=1 / bitrate=10889 / ratetol=1.0 / qcomp=0.60 / qpmin=0 / qpmax=69 / qpstep=4 / cplxblur=20.0 / qblur=0.5 / ip_ratio=1.40 / aq=1:1.00
Default : Да
Forced : Нет
Аудио
Идентификатор : 1
Формат : AC-3
Формат/Информация : Audio Coding 3
Расширение режима : CM (complete main)
Параметр Endianness формата : Big
Идентификатор кодека : A_AC3
Продолжительность : 1 ч. 34 м.
Вид битрейта : Постоянный
Битрейт : 640 Кбит/сек
Каналы : 6 каналов
Расположение каналов : Front: L C R, Side: L R, LFE
Частота : 48,0 КГц
Битовая глубина : 16 бит
Метод сжатия : С потерями
Размер потока : 435 Мбайт (6%)
Заголовок : German
Язык : English
Default : Нет
Forced : Нет
Текст #1
Идентификатор : 3
Формат : UTF-8
Идентификатор кодека : S_TEXT/UTF8
Идентификатор кодека/Информация : UTF-8 Plain Text
Заголовок : Deutsch
Язык : German
Default : Нет
Forced : Нет
Текст #2
Идентификатор : 4
Формат : UTF-8
Идентификатор кодека : S_TEXT/UTF8
Идентификатор кодека/Информация : UTF-8 Plain Text
Заголовок : Russian
Язык : Russian
Default : Да
Forced : Нет
Меню
00:00:00.000 : en:00:00:00.000
00:04:40.375 : en:00:04:40.375
00:11:25.375 : en:00:11:25.375
00:23:46.250 : en:00:23:46.250
00:27:31.625 : en:00:27:31.625
00:29:37.292 : en:00:29:37.292
00:37:35.125 : en:00:37:35.125
00:55:11.792 : en:00:55:11.792
00:58:18.792 : en:00:58:18.792
01:05:25.250 : en:01:05:25.250
01:10:55.208 : en:01:10:55.208
01:15:55.917 : en:01:15:55.917
01:25:01.708 : en:01:25:01.708

Скриншот c названием фильма

Скриншоты




Показать сообщения:    

Текущее время: 09-Дек 16:32

Часовой пояс: UTC + 3


Вы не можете начинать темы
Вы не можете отвечать на сообщения
Вы не можете редактировать свои сообщения
Вы не можете удалять свои сообщения
Вы не можете голосовать в опросах
Вы не можете прикреплять файлы к сообщениям
Вы не можете скачивать файлы