Трон в крови / Kumonosu-jo / Throne of Blood (Акира Куросава / Akira Kurosawa) [1957, Япония, драма, BDRemux 1080p] [Criterion Collection] MVO + Sub Rus, Eng + Original Jap


 

[Цитировать]

Трон в крови / Kumonosu-jo / Throne of Blood
Страна: Япония
Жанр: драма
Год выпуска: 1957
Продолжительность: 01:49:54
Перевод: Профессиональный (многоголосый закадровый)
Cубтитры: русские, английские
Оригинальная аудиодорожка: японский-Режиссер: Акира Куросава / Akira Kurosawa
В ролях: Тосиро Мифунэ, Исудзу Ямада, Такаси Симура, Акира Кубо, Хироши Татикава, Минору Чиаки, Такамару Сасаки, Ген Симидзу, Кокутэн Кодо, Китидзиро Уэда
Описание: Перемещение шекспировского Макбета в средневековую Японию. После грандиозной победы на поле брани, заблудившись в дремучем лесу, лорды Васидзу и Мики наталкиваются на загадочную вещую старуху, которая предсказывает великое будущее Васидзу, и еще более великое — потомкам Мики. Выбравшись из леса, они действительно получают вызов и почетные назначения от императора. Васидзу, подстрекаемый амбициозной женой, и задумывает пойти дальше предсказаний старой колдуньи, но судьба есть судьба…
IMDb || КиноПоиск-Тип релиза: BDRemux 1080p - DVD9 (Custom) - BDRip 720p
Контейнер: MKV
Видео: MPEG-4 AVC Video, 1920x1080 at 23.976 fps, ~35046 kbps
Аудио#1: Russian: 48 kHz, AC3, 2.0 ch, 192 kbps |Многоголосый закадровый|
Аудио#2: Japanese: 48 kHz, LPCM, 1.0 ch, 1152 kbps
Аудио#3: English: 48 kHz, AC3, 1.0 ch, 192 kbps |Commentary by Japanese-film expert Michael Jeck|
Формат субтитров: softsub (SRT)
Сэмпл

MediaInfo

General
Unique ID : 216025664103983335525245818932766631988 (0xA285078EFA0389B0821C15678112E834)
Complete name : N:\Rutracker\Трон в крови\Throne of Blood.1957.CC.BDRemux. rutracker.mkv
Format : Matroska
Format version : Version 2
File size : 28.0 GiB
Duration : 1h 49mn
Overall bit rate mode : Variable
Overall bit rate : 36.5 Mbps
Movie name : Release for RuTracker
Encoded date : UTC 2014-01-13 14:08:43
Writing application : mkvmerge v5.0.1 ('Es ist Sommer') built on Nov 6 2011 16:23:40
Writing library : libebml v1.2.2 + libmatroska v1.3.0
Video
ID : 1
Format : AVC
Format/Info : Advanced Video Codec
Format profile : High@L4.1
Format settings, CABAC : Yes
Format settings, ReFrames : 4 frames
Codec ID : V_MPEG4/ISO/AVC
Duration : 1h 49mn
Bit rate mode : Variable
Maximum bit rate : 37.0 Mbps
Width : 1 920 pixels
Height : 1 080 pixels
Display aspect ratio : 16:9
Frame rate : 23.976 fps
Color space : YUV
Chroma subsampling : 4:2:0
Bit depth : 8 bits
Scan type : Progressive
Title : Throne of Blood.1957.CC.BDRemux. rutracker
Language : Japanese
Default : Yes
Forced : No
Audio #1
ID : 2
Format : AC-3
Format/Info : Audio Coding 3
Mode extension : CM (complete main)
Codec ID : A_AC3
Duration : 1h 49mn
Bit rate mode : Constant
Bit rate : 192 Kbps
Channel(s) : 2 channels
Channel positions : Front: L R
Sampling rate : 48.0 KHz
Bit depth : 16 bits
Compression mode : Lossy
Stream size : 151 MiB (1%)
Language : Russian
Default : Yes
Forced : No
Audio #2
ID : 3
Format : PCM
Codec ID : A_PCM/INT/LIT
Duration : 1h 49mn
Bit rate mode : Constant
Sampling rate : 48.0 KHz
Bit depth : 24 bits
Language : Japanese
Default : No
Forced : No
Audio #3
ID : 4
Format : AC-3
Format/Info : Audio Coding 3
Mode extension : CM (complete main)
Codec ID : A_AC3
Duration : 1h 49mn
Bit rate mode : Constant
Bit rate : 192 Kbps
Channel(s) : 1 channel
Channel positions : Front: C
Sampling rate : 48.0 KHz
Bit depth : 16 bits
Compression mode : Lossy
Stream size : 151 MiB (1%)
Title : Commentary
Language : English
Default : No
Forced : No
Text #1
ID : 5
Format : UTF-8
Codec ID : S_TEXT/UTF8
Codec ID/Info : UTF-8 Plain Text
Language : Russian
Default : No
Forced : No
Text #2
ID : 6
Format : UTF-8
Codec ID : S_TEXT/UTF8
Codec ID/Info : UTF-8 Plain Text
Title : by Japanese-film translator Linda Hoaglund
Language : English
Default : No
Forced : No
Text #3
ID : 7
Format : UTF-8
Codec ID : S_TEXT/UTF8
Codec ID/Info : UTF-8 Plain Text
Title : by Kurosawa expert Donald Richie
Language : English
Default : No
Forced : No
Menu
00:00:00.000 : :1
00:05:21.863 : :2
00:09:31.529 : :3
00:12:31.792 : :4
00:20:07.789 : :5
00:24:58.371 : :6
00:27:06.207 : :7
00:31:59.334 : :8
00:36:44.202 : :9
00:39:30.993 : :10
00:48:50.052 : :11
00:49:58.537 : :12
00:55:55.643 : :13
01:03:09.368 : :14
01:05:53.991 : :15
01:08:34.944 : :16
01:18:09.267 : :17
01:23:31.798 : :18
01:28:52.910 : :19
01:35:11.247 : :20
01:38:11.510 : :21
01:41:22.910 : :22
01:48:18.617 : :23
01:49:53.587 : :24

Скриншоты




Показать сообщения:    

Текущее время: 06-Дек 22:55

Часовой пояс: UTC + 3


Вы не можете начинать темы
Вы не можете отвечать на сообщения
Вы не можете редактировать свои сообщения
Вы не можете удалять свои сообщения
Вы не можете голосовать в опросах
Вы не можете прикреплять файлы к сообщениям
Вы не можете скачивать файлы