Поле в Англии / A Field in England (Бен Уитли / Ben Wheatley) [2013, Великобритания, триллер, драма, история, BDRip 720p] (Nokino) + Sub Rus + Sub Eng + Original Eng


 

[Цитировать]

Поле в Англии / A Field in England
Страна: Великобритания
Жанр: триллер, драма, история
Год выпуска: 2013
Продолжительность: 01:30:16
Перевод: Субтитры от Nokino
Cубтитры: русские, английские
Оригинальная аудиодорожка: английский
Режиссер: Бен Уитли / Ben Wheatley
В ролях:
Майкл Смайли, Рис Шерсмит, Джулиан Бэррэтт, Ричард Гловер, Питер Фердинандо, Райан Поуп, Сара Ди ...
Описание:
Небольшой отряд дезертиров бежит от сражения через заросшее поле, где их берут в плен двое — О`Нил и Катлер. Алхимик О`Нил заставляет своих пленников помочь ему в поисках клада, который якобы зарыт где-то в этих местах.
Единственной пищей отряда становятся растущие здесь в изобилии грибы, которые погружают героев в атмосферу хаоса, насилия и паранойи. В то же время они постепенно начинают осознавать, что сокровищем этих мест может оказаться вовсе не золото, и что они стали жертвами ужасающей энергетики, заложниками этого места.
Дополнительно:
http://www.kinopoisk.ru/film/705774/
http://www.imdb.com/title/tt2375574/
Сэмпл: http://multi-up.com/938348
Качество видео: BDRip 720p - HDRip
Формат видео: MKV
Видео: MPEG4 Video (H264) 1280x544 24fps 5299 Кбит/сек
Аудио: DTS 48000Hz 6ch 1509 Кбит/сек
Формат субтитров: softsub (SRT)

Примеры субтитров

1
00:00:05,000 --> 00:00:09,520
Предупреждение :
этот фильм содержит мигающие картинки и стробоскопические эффекты
2
00:00:36,520 --> 00:00:39,200
Уайтхед!
3
00:00:48,640 --> 00:00:51,080
Уайтхед! Ты где?
4
00:00:55,320 --> 00:00:58,680
Я знаю, что ты здесь - от меня не спрячешься.
5
00:00:58,760 --> 00:01:01,730
О, Господи Боже.
6
00:01:01,840 --> 00:01:03,440
Не дай ему найти меня.
7
00:01:05,080 --> 00:01:06,760
Я чую твой запах!
8
00:01:15,520 --> 00:01:16,680
Эй, дружок.
9
00:01:17,320 --> 00:01:19,440
Дружище, эй.
10
00:01:22,600 --> 00:01:23,800
Тебе как звать?
11
00:01:25,840 --> 00:01:27,560
Имя можешь сказать?
12
00:01:29,840 --> 00:01:32,160
Уайтхед!
13
00:01:32,240 --> 00:01:33,890
Где ты, скотина?
14
00:01:35,800 --> 00:01:37,520
Ты, противный карлик!
15
00:01:41,080 --> 00:01:42,410
Только бы не нашёл...
16
00:01:43,240 --> 00:01:46,130
Уайтхед, я уже близко!
17
00:01:49,200 --> 00:01:50,800
Ау!
18
00:01:51,560 --> 00:01:54,040
Шесть месяцев, чтобы отыскать одного ирландца!
19
00:01:56,240 --> 00:01:57,570
Шесть месяцев, Уайтхед!
20
00:01:57,640 --> 00:02:00,840
- Избавь меня, Боже, от этого самодовольного мудака.
- А что ты вместо этого отыскал? Хрен собачий!

MediaInfo

Общее
Уникальный идентификатор : 211302110457224239807852751100090153171 (0x9EF74E62161A42E7A452B7F58E4E78D3)
Полное имя : D:\utorent\A Field in England.mkv
Формат : Matroska
Версия формата : Version 2
Размер файла : 4,38 Гбайт
Продолжительность : 1 ч. 30 м.
Общий поток : 6946 Кбит/сек
Дата кодирования : UTC 2014-01-08 21:02:19
Программа кодирования : mkvmerge v5.3.0 ('I could have danced') built on Feb 9 2012 10:38:07
Библиотека кодирования : libebml v1.2.3 + libmatroska v1.3.0
Видео
Идентификатор : 1
Формат : AVC
Формат/Информация : Advanced Video Codec
Профиль формата : High@L4.1
Параметр CABAC формата : Да
Параметр ReFrames формата : 12 кадров
Идентификатор кодека : V_MPEG4/ISO/AVC
Продолжительность : 1 ч. 30 м.
Битрейт : 5299 Кбит/сек
Ширина : 1280 пикселей
Высота : 544 пикселя
Соотношение сторон : 2,35:1
Режим частоты кадров : Постоянный
Частота кадров : 24,000 кадра/сек
Цветовое пространство : YUV
Субдискретизация насыщенности : 4:2:0
Битовая глубина : 8 бит
Тип развёртки : Прогрессивная
Бит/(Пиксели*Кадры) : 0.317
Размер потока : 3,34 Гбайт (76%)
Библиотека кодирования : x264 core 133 r2334+704+50 a7549b7 tMod [8-bit@4:2:0 X86]
Настройки программы : cabac=1 / ref=12 / deblock=1:0:0 / analyse=0x3:0x113 / me=umh / subme=10 / psy=1 / fade_compensate=0.00 / psy_rd=1.05:0.00 / mixed_ref=1 / me_range=32 / chroma_me=1 / trellis=2 / 8x8dct=1 / cqm=0 / deadzone=21,11 / fast_pskip=1 / chroma_qp_offset=-2 / threads=16 / lookahead_threads=2 / sliced_threads=0 / nr=0 / decimate=1 / interlaced=0 / bluray_compat=0 / constrained_intra=0 / fgo=0 / bframes=8 / b_pyramid=2 / b_adapt=2 / b_bias=0 / direct=3 / weightb=1 / open_gop=0 / weightp=2 / keyint=240 / keyint_min=24 / scenecut=40 / intra_refresh=0 / rc_lookahead=60 / rc=crf / mbtree=1 / crf=17.2000 / qcomp=0.90 / qpmin=0 / qpmax=69 / qpstep=4 / vbv_maxrate=50000 / vbv_bufsize=50000 / crf_max=0.0 / nal_hrd=none / ip_ratio=1.40 / aq=4:0.95 / aq-sensitivity=10.00 / aq-factor=1.00:1.00:1.00 / aq2=0 / aq3=0
Язык : English
Default : Да
Forced : Нет
Аудио
Идентификатор : 2
Формат : DTS
Формат/Информация : Digital Theater Systems
Режим : 16
Параметр Endianness формата : Big
Идентификатор кодека : A_DTS
Продолжительность : 1 ч. 30 м.
Вид битрейта : Постоянный
Битрейт : 1509 Кбит/сек
Каналы : 6 каналов
Расположение каналов : Front: L C R, Side: L R, LFE
Частота : 48,0 КГц
Битовая глубина : 24 бит
Метод сжатия : С потерями
Размер потока : 974 Мбайт (22%)
Язык : English
Default : Да
Forced : Нет
Текст #1
Идентификатор : 3
Формат : UTF-8
Идентификатор кодека : S_TEXT/UTF8
Идентификатор кодека/Информация : UTF-8 Plain Text
Заголовок : Russian
Язык : Russian
Default : Да
Forced : Нет
Текст #2
Идентификатор : 4
Формат : UTF-8
Идентификатор кодека : S_TEXT/UTF8
Идентификатор кодека/Информация : UTF-8 Plain Text
Заголовок : English
Язык : English
Default : Нет
Forced : Нет
Меню
00:00:00.000 : en:00:00:00.000
00:07:10.125 : en:00:07:10.125
00:13:50.000 : en:00:13:50.000
00:20:48.625 : en:00:20:48.625
00:26:44.917 : en:00:26:44.917
00:35:46.708 : en:00:35:46.708
00:42:14.083 : en:00:42:14.083
00:49:39.042 : en:00:49:39.042
00:58:52.250 : en:00:58:52.250
01:05:09.000 : en:01:05:09.000
01:12:20.542 : en:01:12:20.542
01:18:39.083 : en:01:18:39.083

Скриншот c названием фильма

Скриншоты




Показать сообщения:    

Текущее время: 02-Дек 21:08

Часовой пояс: UTC + 3


Вы не можете начинать темы
Вы не можете отвечать на сообщения
Вы не можете редактировать свои сообщения
Вы не можете удалять свои сообщения
Вы не можете голосовать в опросах
Вы не можете прикреплять файлы к сообщениям
Вы не можете скачивать файлы