Романист Мартен. Элоиза / Le romancier Martin. Heloise (Жером Фулон / Jerome Foulon) [2010, Франция, комедия абсурда, сюрреализм, экранизация, ЛГБТ-тема, DVD] Original (Fre) + Sub (Rus, Eng, Fre, Deu)


Статистика раздачи [Обновить пиров]
Размер:  2.35 GB   |    Зарегистрирован:  1 год 1 месяц   |    Скачан:  0 раз

Полного источника не было: Никогда

 
   
 
 
 

[Цитировать]

Романист Мартен. Элоиза
Le romancier Martin. Héloïse- Страна: Франция
Жанр: комедия абсурда, сюрреализм, экранизация, ЛГБТ-тема
Год выпуска: 2010
Продолжительность: 01:36:44
Перевод: Субтитры (русский перевод Éclair Group)
Cубтитры: русские, английские, французские, немецкие, нидерландские, румынские
Оригинальная аудиодорожка: французский
Режиссер: Жером Фулон / Jérôme Foulon
В ролях: Джонатан Ламберт / Jonathan Lambert (Martin/Héloïse), Изабель Желина / Isabelle Gélinas (Léontine), Алессандра Мартинес / Alessandra Martines (Amandine), Доминик Пиньон / Dominique Pinon (Marcel / Alfred), Мишель Вюйермоз / Michel Vuillermoz (Gromard), Валери Боннетон / Valérie Bonneton (Marie-Thérèse / madame Gromard), Катрин Сальвиа / Catherine Salviat (la mère), Патрис Тибо / Patrice Thibaud (le docteur)
Описание: По мотивам рассказа Марселя Эме / Marcel Aymé "Романист Мартен / Le Romancier Martin" (1936) и книги "Другая сторона Мартена / Derrière chez Martin" (1938). Фильм состоит из двух необычных и забавных эпизодов, повествующих о жизненных коллизиях известного французского "романиста Мартена".
Первая серия: Романист Мартен. У писателя Мартена навязчивая мания убивать своих героев. И однажды издатель требует от писателя такого сюжета, чтобы ни один из персонажей не дожил до последней страницы. Но герои решили не позволить ему совершить задуманное и восстали против своего создателя…
Вторая серия: Элоиза. В Батиньоле, северо-западном уголке Парижа, самом скучном с точки зрения туриста округе, романист Мартен вместе со своей женой предаются размеренной семейной жизни. Но однажды ночью с ним случается нечто необыкновенное – он превращается в женщину. Это дает начало удивительным приключениям…
Доп. информация: Hot Bird (13.0°E) TV5MONDE Europe DVB-S. Двухсерийный телефильм.
Награда: приз за инновации Festival de la fiction TV de La Rochelle 2010.

Качество видео: DVB
Формат видео: DVD Video
Видео: MPEG Video 2, 720x576@1024x576 (16:9), 25 fps, ~3222 kbps avg, 0.311 bit/pixel
Аудио: MPEG Audio 2, 2 ch, 48 kHz, 192.00 kbps - французский
Формат субтитров: prerendered (IDX+SUB)

MediaInfo

Title: [apreder]Le_romancier_Martin_Heloise(2010)DVBSize: 2.35 Gb ( 2 466 202,00 KBytes ) - DVD-5Enabled regions: 1, 2, 3, 4, 5, 6, 7, 8
VTS_01 : Play Length: 01:36:44 Video: PAL 16:9 (720x576) VBR, Auto Letterboxed Audio: Francais (MPEG1, 2 ch) Subtitles: Russian English Francais Deutsch Nederlands Romanian
ОбщееПолное имя : F:\My Torrents 3\[apreder]Le_romancier_Martin_Heloise(2010)DVB\VIDEO_TS\VTS_01_1.VOBФормат : MPEG-PSРазмер файла : 1024 МбайтПродолжительность : 41 м.Режим общего битрейта : ПеременныйОбщий поток : 3483 Кбит/сек
ВидеоИдентификатор : 224 (0xE0)Формат : MPEG VideoВерсия формата : Version 2Профиль формата : Main@MainПараметр BVOP формата : ДаПараметр матрицы формата : ВыборочнаяПараметр GOP формата : M=4, N=12Format_Settings_PictureStructure : FrameПродолжительность : 41 м.Вид битрейта : ПеременныйБитрейт : 3222 Кбит/секШирина : 720 пикселейВысота : 576 пикселейСоотношение сторон : 16:9Частота кадров : 25,000 кадров/секСтандарт вещания : PALЦветовое пространство : YUVСубдискретизация насыщенности : 4:2:0Битовая глубина : 8 битТип развёртки : ЧересстрочнаяПорядок развёртки : Верхнее поле первоеМетод сжатия : С потерямиБит/(Пиксели*Кадры) : 0.311Временной код первого кадра : 00:00:00:00Оригинал временного кода : Group of pictures headerРазмер потока : 947 Мбайт (92%)
АудиоИдентификатор : 192 (0xC0)Формат : MPEG AudioВерсия формата : Version 1Профиль формата : Layer 2Режим : Joint stereoРасширение режима : Intensity Stereo + MS StereoПродолжительность : 41 м.Вид битрейта : ПостоянныйБитрейт : 192 Кбит/секКаналы : 2 каналаЧастота : 48,0 КГцМетод сжатия : С потерямиРазмер потока : 56,4 Мбайт (6%)
Текст #1Идентификатор : 189 (0xBD)-32 (0x20)Формат : RLEФормат/Информация : Run-length encodingРежим смешивания : DVD-Video
Текст #2Идентификатор : 189 (0xBD)-33 (0x21)Формат : RLEФормат/Информация : Run-length encodingРежим смешивания : DVD-Video
Текст #3Идентификатор : 189 (0xBD)-34 (0x22)Формат : RLEФормат/Информация : Run-length encodingРежим смешивания : DVD-Video
Текст #4Идентификатор : 189 (0xBD)-35 (0x23)Формат : RLEФормат/Информация : Run-length encodingРежим смешивания : DVD-Video
Текст #5Идентификатор : 189 (0xBD)-36 (0x24)Формат : RLEФормат/Информация : Run-length encodingРежим смешивания : DVD-Video
Текст #6Идентификатор : 189 (0xBD)-37 (0x25)Формат : RLEФормат/Информация : Run-length encodingРежим смешивания : DVD-Video

Скриншот c названием фильма

Скриншоты


Резервные скриншоты


-[695]
[teatrix.ru].t7065.torrent 
Торрент: Зарегистрирован [ 2015-10-11 11:22 ] · 0A60F8947D9179B3F6F04A40C9E41DA2E1531E74

Скачать .torrent

Скачать

13 KB

Статус: проверено
Скачан: 0 раз
Размер: 2.35 GB
terms.php



Быстрый ответ

Имя:

      
Для отправки сообщений необходимо включить JavaScript
Показать сообщения:    

Текущее время: 09-Дек 20:23

Часовой пояс: UTC + 3


Вы можете начинать темы
Вы можете отвечать на сообщения
Вы не можете редактировать свои сообщения
Вы не можете удалять свои сообщения
Вы не можете голосовать в опросах
Вы не можете прикреплять файлы к сообщениям
Вы можете скачивать файлы