Мандерлей / Manderlay (Ларс фон Триер / Lars von Trier) [2005, Дания, Швеция, Нидерланды, Франция, Германия, Великобритания, Италия, Драма, DVD9 (Custom)] Dub (Мосфильм) + Sub Eng, Esp, Rus + Original Eng


Статистика раздачи [Обновить пиров]
Размер:  7.73 GB   |    Зарегистрирован:  1 год 1 месяц   |    Скачан:  0 раз

Полного источника не было: Никогда

 
   
 
 
 

[Цитировать]

Мандерлей / Manderlay«Освобождение. Хотят они или нет» «Liberation. Whether They Want It Or Not»
Страна:Дания, Швеция, Нидерланды, Франция, Германия, Великобритания, Италия
Студия:Alan Young Pictures, arte France Cinema, Canal Television AB, Canal+ Espana, Canal+ [fr], Danmarks Radio (DR), Degeto Film, Edith Film Oy, Film i Vast, IFC Films, Instituto de Credito Oficial (ICO), Instituto Nacional de Cine y Artes Audiovisuales (INCAA), Invicta Capital Ltd., Isabella Films B.V., Israeli Film Fund, Manderlay Ltd., Memfis Film, Metrodome Distribution, Millennium Films, Ministerio de Cultura (ICAA), NPS Television, Ognon Pictures, Pain Unlimited GmbH Filmproduktion, Sigma Films, Sveriges Television (SVT), Television Suisse-Romande (TSR), Television Espanola (TVE), Westdeutscher Rundfunk (WDR), YLE Co-Productions, Zentropa Entertainments.
Жанр:ДрамаГод выпуска:2005
Продолжительность:02:18:26Перевод:Профессиональный (дублированный) МосфильмCубтитры:Английские, Испанские, Русские
Оригинальная аудиодорожка:Английский
Премьера (мир):16.05.2005
Режиссер:Ларс фон Триер / Lars von TrierВ ролях:Даллас Ховард--Грейс Маргарет Маллигэн
Исаак де Банколе--Тимоти
Дэнни Гловер--Вильгельм
Уиллем Дефо--отец Грейс
Майкл Абитебул--Томас
Лорен Бэколл--мать
Жан-Марк Барр--мистер Робинсон
Желько Иванек--доктор Гектор
Удо Кир--мистер Кирсп
Джереми Дейвис--Нильс
Описание:Вторая часть «американской» трилогии Ларса фон Триера, начатой «Догвиллем». Через два месяца после описанных в «Догвилле» событий, Грейс оказывается на плантации в Алабаме, где рабочие не знают, что рабство было отменено 70 лет назад. Сам Триер говорит о своем проекте так: «Я ожидаю, что мой фильм объединит ку-клукс-клан и цветных, потому что и те, и другие захотят после этого меня убить».
Доп. информация:Исходник найден в сети.Профессиональный (дублированный)-Мосфильм и русские субтитрывзяты из раздачи StalkerРеавторинг Нордер.Огромное Спасибо Всем, без чьей помощи этот релиз не состоялся бы!Сценарий:Ларс фон ТриерПродюсер:Вибеке Винделов, Михаэль Андре, Юмбер БальсанОператор:Энтони Дод МэнтлКомпозитор:Йоахим ХольбекХудожник:Питер Грант, Манон Расмуссен, Симона ГрауМонтаж:Молли Марлен Стенсгаард

Знаете ли вы, что

Награды и номинации


Рецензия

Софт

PGCDemux (извлечение).
BeSweet, Sony Vegas 9 (звук).
DVD-lab PRO 2, Subtitle Workshop (субтитры).
MuxMan (сборка). DvdReMakePro (финал).

Бонусы

Нет.
Меню:Английский, анимированное, озвученное.Сэмпл:https://www.sendspace.com/file/m4cyz3Тип релиза:DVD9 (Custom)
Контейнер:DVD-Video
Видео:NTSC 16:9 (720x480) VBR, Auto Letterboxed, 7370 Кбит/сек, 29,970 кадров/секАудио 1:Русский:AC3, 6 ch, 48.0 KHz, 448 Кбит/сек / Профессиональный (дублированный)-МосфильмАудио 2:Английский:AC3, 6 ch, 48.0 KHz, 448 Кбит/сек / (Оригинал)Формат субтитров:prerendered (DVD/IDX+SUB)

Dvd Info

Title: Manderlay DVD-9_Custom
Size: 7.73 Gb ( 8 102 918,00 KBytes ) - DVD-9
Enabled regions: 1, 2, 3, 4, 5, 6, 7, 8
VTS_01 :
Play Length: 02:18:26+{00:00:00}+{00:00:00}
Video: NTSC 16:9 (720x480) VBR, Auto Letterboxed
Audio:
Russian (Dolby AC3, 6 ch)
English (Dolby AC3, 6 ch)
Subtitles:
English
Espanol
Russian
VTS_02 :
Play Length: 00:00:18
Video: NTSC 4:3 (720x480) VBR
Audio:
English (Dolby AC3, 2 ch)

Mediainfo

Общее
Полное имя : F:\Manderlay DVD-9_Custom\VIDEO_TS\VTS_01_1.VOB
Формат : MPEG-PS
Размер файла : 1024 Мбайт
Продолжительность : 16 м.
Режим общего битрейта : Переменный
Общий поток : 8434 Кбит/сек
Видео
Идентификатор : 224 (0xE0)
Формат : MPEG Video
Версия формата : Version 2
Профиль формата : Main@Main
Параметр BVOP формата : Да
Параметр матрицы формата : Выборочная
Параметр GOP формата : Variable
Продолжительность : 16 м.
Вид битрейта : Переменный
Битрейт : 7370 Кбит/сек
Максимальный битрейт : 9802 Кбит/сек
Ширина : 720 пикселей
Высота : 480 пикселей
Соотношение сторон : 16:9
Частота кадров : 29,970 кадров/сек
Стандарт вещания : NTSC
Цветовое пространство : YUV
Субдискретизация насыщенности : 4:2:0
Битовая глубина : 8 бит
Метод сжатия : С потерями
Бит/(Пиксели*Кадры) : 0.712
Временной код первого кадра : 00:00:00;00
Оригинал временного кода : Group of pictures header
GOP, открыто/закрыто : Открыто
GOP, открыто/закрыто на первом кадре : Закрыто
Размер потока : 895 Мбайт (87%)
Аудио #1
Идентификатор : 189 (0xBD)-128 (0x80)
Формат : AC-3
Формат/Информация : Audio Coding 3
Расширение режима : CM (complete main)
Параметр Endianness формата : Big
Режим смешивания : DVD-Video
Продолжительность : 16 м.
Вид битрейта : Постоянный
Битрейт : 448 Кбит/сек
Каналы : 6 каналов
Расположение каналов : Front: L C R, Side: L R, LFE
Частота : 48,0 КГц
Метод сжатия : С потерями
Размер потока : 54,4 Мбайт (5%)
Аудио #2
Идентификатор : 189 (0xBD)-129 (0x81)
Формат : AC-3
Формат/Информация : Audio Coding 3
Расширение режима : CM (complete main)
Параметр Endianness формата : Big
Режим смешивания : DVD-Video
Продолжительность : 16 м.
Вид битрейта : Постоянный
Битрейт : 448 Кбит/сек
Каналы : 6 каналов
Расположение каналов : Front: L C R, Side: L R, LFE
Частота : 48,0 КГц
Метод сжатия : С потерями
Размер потока : 54,4 Мбайт (5%)
Текст #1
Идентификатор : 189 (0xBD)-32 (0x20)
Формат : RLE
Формат/Информация : Run-length encoding
Режим смешивания : DVD-Video
Продолжительность : 16 м.
Задержка видео : 32 с.
Текст #2
Идентификатор : 189 (0xBD)-33 (0x21)
Формат : RLE
Формат/Информация : Run-length encoding
Режим смешивания : DVD-Video
Продолжительность : 16 м.
Задержка видео : 16 с.
Текст #3
Идентификатор : 189 (0xBD)-34 (0x22)
Формат : RLE
Формат/Информация : Run-length encoding
Режим смешивания : DVD-Video
Продолжительность : 16 м.
Задержка видео : 16 с.

Скриншоты меню


Скриншоты

[teatrix.ru].t7071.torrent 
Торрент: Зарегистрирован [ 2015-10-11 11:22 ] · 403609AE1AAA24A0D8D7382AB8E3203E1BBFE8EE

Скачать .torrent

Скачать

40 KB

Статус: проверено
Скачан: 0 раз
Размер: 7.73 GB
terms.php



Быстрый ответ

Имя:

      
Для отправки сообщений необходимо включить JavaScript
Показать сообщения:    

Текущее время: 08-Дек 23:07

Часовой пояс: UTC + 3


Вы можете начинать темы
Вы можете отвечать на сообщения
Вы не можете редактировать свои сообщения
Вы не можете удалять свои сообщения
Вы не можете голосовать в опросах
Вы не можете прикреплять файлы к сообщениям
Вы можете скачивать файлы