Догвилль / Dogville (Ларс фон Триер / Lars von Trier) [2003, Дания, Швеция, Триллер, Драма, Детектив, DVD9 (Custom)] Dub (Мосфильм) + MVO + Sub Por, Eng, Esp, Rus + Original Eng / California Filmes


Статистика раздачи [Обновить пиров]
Размер:  7.92 GB   |    Зарегистрирован:  1 год 1 месяц   |    Скачан:  0 раз

Полного источника не было: Никогда

 
   
 
 
 

[Цитировать]

Догвилль / Dogville / California Filmes«Кто выживет в жутком городе?»Текущий Диск 1 - Скачать Диск 2 - Пилот Страна:Дания, Швеция, Великобритания, Франция, Германия, Нидерланды, Норвегия, Финляндия, Италия
Студия:arte, arte France Cinema, Canal+ [fr], CoBo Fonds, Danmarks Radio (DR), Det Danske Filminstitut, Edith Film Oy, Eurimages, European Regional Development Fund, Film Fund of the Netherlands, Film i Vast, Filmmek, Filmstiftung North Rhine Westphalia, Finnish Film Foundation, Fjeldabe Films AS, Foundation for Audiovisual Production, France 3 Cinema, Invicta Capital Ltd., Isabella Films B.V., Liberator Productions, Memfis Film, Nordisk Film Biografdistribution, Nordisk Film- & TV-Fond, Norsk TV2 AS, NPS Television, Pain Unlimited GmbH Filmproduktion, Planet Pictures, Sigma Films, Slot Machine, Something Else B.V., Spillefilmkompaniet 4 1/2 AS, Svenska Filminstitutet (SFI), Sveriges Television (SVT), Trollhattan Film AB, TV 1000, Westdeutscher Rundfunk (WDR), YLE TV1, Zentropa Entertainments, Zoma Films Ltd.
Жанр:Триллер, Драма, ДетективГод выпуска:2003
Продолжительность:02:50:17Перевод 1:Профессиональный (дублированный) МосфильмПеревод 2:Профессиональный (многоголосый закадровый)Cубтитры:Португальские, Английские, Испанские, Русские
Оригинальная аудиодорожка:Английский
Премьера (мир):19.05.2003
Режиссер:Ларс фон Триер / Lars von TrierВ ролях:Николь Кидман--Грэйс Маргарет Маллиган
Пол Беттани--Том Эдисон-младший
Лорен Бэколл--Матушка Джинджер
Хлоя Севиньи--Лиз Хэнсон
Стеллан Скарсгорд--Чак
Шона Шим--Джун
Патриша Кларксон--Вера
Джереми Дейвис--Билл Хэнсон
Филип Бейкер Холл --Том Эдисон
Бен Газзара--Джек Маккей
Блэр Браун--миссис Хэнсон
Желько Иванек--Бен
Харриет Андерссон--Глория
Шивон Фэллон--Марта
Джеймс Каан--большой человек
Удо Кир--человек в плаще
Жан-Марк Барр--человек в шляпе
Джон Хёрт--рассказчик
Описание:1930-е годы. Спасаясь от гангстеров, юная Грэйс оказывается в городке Догвилль где-то в Скалистых горах. Местные жители нехотя соглашаются приютить беглянку, если она будет работать на них, но затем их запросы становятся непомерными, а страх разоблачения превращает обывателей в жестоких подонков.
Постепенно Грэйс становится рабыней тихих обитателей Догвилля, убеждаясь, что в этом городе у доброты есть оборотная сторона. Однако никто не знает, как опасна может быть Грэйс. Вскоре Догвилль пожалеет, что посмел обнажить свои клыки…

Доп. информация:Исходник и Профессиональный (многоголосый, закадровый) найдены в сети.Профессиональный (дублированный)-Мосфильм и русские субтитрыРеавторинг Нордер.Огромное Спасибо Всем, без чьей помощи этот релиз не состоялся бы!Сценарий:Ларс фон ТриерПродюсер:Вибеке Винделов, Джиллиан Берри, Беттина БрокемперОператор:Энтони Дод МэнтлХудожник:Питер Грант, Манон Расмуссен, Симона ГрауМонтаж:Молли Марлен Стенсгаард

Знаете ли вы, что

Награды и номинации


Рецензия

Софт

PGCDemux (извлечение).
BeSweet, Sony Vegas 9 (звук).
DVD-lab PRO 2, Subtitle Workshop (субтитры).
MuxMan (сборка). DvdReMakePro (финал).

Бонусы:(Без перевода)

- Trailers
Меню:Португальский, статичное , озвученное.Сэмпл:https://www.sendspace.com/file/eu94a5Тип релиза:DVD9 (Custom)
Контейнер:DVD-Video
Видео:NTSC 4:3 (720x480) VBR, 4760 Кбит/сек, 29,970 кадров/секАудио 1:Английский:AC3, 2 ch, 48.0 KHz, 192 Кбит/секАудио 2:Португальский:AC3, 2 ch, 48.0 KHz, 192 Кбит/секАудио 3:Английский:AC3, 6 ch, 48.0 KHz, 384 Кбит/сек / (Оригинал)Аудио 4:Русский:AC3, 6 ch, 48.0 KHz, 448 Кбит/сек / Профессиональный (дублированный)-МосфильмАудио 5:Русский:AC3, 2 ch, 48.0 KHz, 192 Кбит/сек / Профессиональный (многоголосый, закадровый)Формат субтитров:prerendered (DVD/IDX+SUB)

Dvd Info

Title: Dogville DVD-9_Custom
Size: 7.92 Gb ( 8 307 066,00 KBytes ) - DVD-9
Enabled regions: 1, 2, 3, 4, 5, 6, 7, 8
VTS_01 :
Play Length: 02:50:17+00:00:19+00:00:10
Video: NTSC 4:3 (720x480) VBR
Audio:
English (Dolby AC3, 2 ch)
Portugues (Dolby AC3, 2 ch)
English (Dolby AC3, 6 ch)
Russian (Dolby AC3, 6 ch)
Russian (Dolby AC3, 2 ch)
Subtitles:
Portugues
English
Espanol
Russian
VTS_02 :
Play Length: 00:00:00+00:00:00+00:00:00+00:00:00+00:00:00+00:01:26
Video: NTSC 4:3 (720x480) VBR
Audio:
English (Dolby AC3, 2 ch)

Mediainfo

Общее
Полное имя : F:Dogville DVD-9_Custom\VIDEO_TS\VTS_01_1.VOB
Формат : MPEG-PS
Размер файла : 1024 Мбайт
Продолжительность : 22 м.
Режим общего битрейта : Переменный
Общий поток : 6293 Кбит/сек
Видео
Идентификатор : 224 (0xE0)
Формат : MPEG Video
Версия формата : Version 2
Профиль формата : Main@Main
Параметр BVOP формата : Да
Параметр матрицы формата : Выборочная
Параметр GOP формата : M=3, N=12
Продолжительность : 22 м.
Вид битрейта : Переменный
Битрейт : 4760 Кбит/сек
Максимальный битрейт : 7500 Кбит/сек
Ширина : 720 пикселей
Высота : 480 пикселей
Соотношение сторон : 4:3
Частота кадров : 29,970 кадров/сек
Стандарт вещания : NTSC
Цветовое пространство : YUV
Субдискретизация насыщенности : 4:2:0
Битовая глубина : 8 бит
Метод сжатия : С потерями
Бит/(Пиксели*Кадры) : 0.460
Временной код первого кадра : 00:00:00;00
Оригинал временного кода : Group of pictures header
GOP, открыто/закрыто : Открыто
GOP, открыто/закрыто на первом кадре : Закрыто
Размер потока : 775 Мбайт (76%)
Аудио #1
Идентификатор : 189 (0xBD)-128 (0x80)
Формат : AC-3
Формат/Информация : Audio Coding 3
Расширение режима : CM (complete main)
Параметр Endianness формата : Big
Режим смешивания : DVD-Video
Продолжительность : 22 м.
Вид битрейта : Постоянный
Битрейт : 192 Кбит/сек
Каналы : 2 канала
Расположение каналов : Front: L R
Частота : 48,0 КГц
Метод сжатия : С потерями
Задержка видео : -16 мс.
Размер потока : 31,2 Мбайт (3%)
Аудио #2
Идентификатор : 189 (0xBD)-129 (0x81)
Формат : AC-3
Формат/Информация : Audio Coding 3
Расширение режима : CM (complete main)
Параметр Endianness формата : Big
Режим смешивания : DVD-Video
Продолжительность : 22 м.
Вид битрейта : Постоянный
Битрейт : 192 Кбит/сек
Каналы : 2 канала
Расположение каналов : Front: L R
Частота : 48,0 КГц
Метод сжатия : С потерями
Задержка видео : -16 мс.
Размер потока : 31,2 Мбайт (3%)
Аудио #3
Идентификатор : 189 (0xBD)-130 (0x82)
Формат : AC-3
Формат/Информация : Audio Coding 3
Расширение режима : CM (complete main)
Параметр Endianness формата : Big
Режим смешивания : DVD-Video
Продолжительность : 22 м.
Вид битрейта : Постоянный
Битрейт : 384 Кбит/сек
Каналы : 6 каналов
Расположение каналов : Front: L C R, Side: L R, LFE
Частота : 48,0 КГц
Метод сжатия : С потерями
Задержка видео : -16 мс.
Размер потока : 62,5 Мбайт (6%)
Аудио #4
Идентификатор : 189 (0xBD)-131 (0x83)
Формат : AC-3
Формат/Информация : Audio Coding 3
Расширение режима : CM (complete main)
Параметр Endianness формата : Big
Режим смешивания : DVD-Video
Продолжительность : 22 м.
Вид битрейта : Постоянный
Битрейт : 448 Кбит/сек
Каналы : 6 каналов
Расположение каналов : Front: L C R, Side: L R, LFE
Частота : 48,0 КГц
Метод сжатия : С потерями
Задержка видео : -16 мс.
Размер потока : 72,9 Мбайт (7%)
Аудио #5
Идентификатор : 189 (0xBD)-132 (0x84)
Формат : AC-3
Формат/Информация : Audio Coding 3
Расширение режима : CM (complete main)
Параметр Endianness формата : Big
Режим смешивания : DVD-Video
Продолжительность : 22 м.
Вид битрейта : Постоянный
Битрейт : 192 Кбит/сек
Каналы : 2 канала
Расположение каналов : Front: L R
Частота : 48,0 КГц
Метод сжатия : С потерями
Задержка видео : -16 мс.
Размер потока : 31,2 Мбайт (3%)
Текст #1
Идентификатор : 189 (0xBD)-32 (0x20)
Формат : RLE
Формат/Информация : Run-length encoding
Режим смешивания : DVD-Video
Продолжительность : 22 м.
Задержка видео : 2 с. 52 мс.
Текст #2
Идентификатор : 189 (0xBD)-33 (0x21)
Формат : RLE
Формат/Информация : Run-length encoding
Режим смешивания : DVD-Video
Продолжительность : 22 м.
Задержка видео : 20 с.
Текст #3
Идентификатор : 189 (0xBD)-34 (0x22)
Формат : RLE
Формат/Информация : Run-length encoding
Режим смешивания : DVD-Video
Продолжительность : 22 м.
Задержка видео : 2 с. 319 мс.
Текст #4
Идентификатор : 189 (0xBD)-35 (0x23)
Формат : RLE
Формат/Информация : Run-length encoding
Режим смешивания : DVD-Video
Продолжительность : 22 м.
Задержка видео : 1 с. 185 мс.

Скриншоты меню



Скриншоты

Скриншоты доп. материалов


[teatrix.ru].t7075.torrent 
Торрент: Зарегистрирован [ 2015-10-11 11:22 ] · 7451D069FBEC5A1C972D76C4615575D6120E5232

Скачать .torrent

Скачать

41 KB

Статус: проверено
Скачан: 0 раз
Размер: 7.92 GB
terms.php



Быстрый ответ

Имя:

      
Для отправки сообщений необходимо включить JavaScript
Показать сообщения:    

Текущее время: 03-Дек 20:44

Часовой пояс: UTC + 3


Вы можете начинать темы
Вы можете отвечать на сообщения
Вы не можете редактировать свои сообщения
Вы не можете удалять свои сообщения
Вы не можете голосовать в опросах
Вы не можете прикреплять файлы к сообщениям
Вы можете скачивать файлы