Дом / House / Hausu (Нобухико Обаяши / Nobuhiko Obayashi) [1977, Япония, Ужасы, Фэнтези, Комедия, DVD9 (Custom)] Sub Rus, Eng + Original Jap / Criterion Collection#539


Статистика раздачи [Обновить пиров]
Размер:  7.64 GB   |    Зарегистрирован:  1 год 1 месяц   |    Скачан:  0 раз

Полного источника не было: Никогда

 
   
 
 
 

[Цитировать]

Дом / House / Hausu / Criterion Collection#539
Страна:Япония
Студия:PSC, Toho Company.
Жанр:Фэнтези, Ужасы, КомедияГод выпуска:1977
Продолжительность:01:27:53Производитель:The Criterion Collection#539Перевод:Субтитры Прохор666
Cубтитры:Английские, РусскиеОригинальная аудиодорожка:Японский
Премьера (мир):30.07.1977
Режиссер:Нобухико Обаяши / Nobuhiko ObayashiВ ролях:Кимико Икегами, Мики Джинбо, Кумико Охба, Аи Мацубара, Миеко Сато, Эрико Танака, Масаё Мияко, Киёхико Озаки, Сахо Сасадзава, Асеи КобаясиОписание:Семеро школьниц отправляются навестить бабушку в её большой и мрачный дом. Но они и не подозревают, что Дом — это демон, пожирающий девственниц.
Доп. информация:Исходник найден в сети.Русские субтитры Прохор666 взятыПеревод английских субтитров: Прохор666 .Реавторинг Нордер.Огромное Спасибо Всем, без чьей помощи этот релиз не состоялся бы!Сценарий:Тихо Кацура, Тигуми ОбаясиПродюсер:Ёрихико Ямада, Нобухико ОбаясиОператор:Ёситака СакамотоКомпозитор:Асеи Кобаяси, Микки ЁсиноХудожник:Кацуо СацуяМонтаж:Нобуо Огава

Рецензия

Софт

PGCDemux (извлечение).
DVD-lab PRO 2, Subtitle Workshop (субтитры).
MuxMan (сборка). DvdReMakePro (финал).

Бонусы:(Без перевода)

Constructing a “House,”a new video piece featuring interviews with director Nobuhiko Obayashi,story scenarist and daughter of the filmmaker Chigumi Obayashi,and screenwriter Chiho Katsura
- Emotion, a 1966 experimental film by Obayashi
- New video appreciation by director Ti West (House of the Devil)
- Theatrical trailer
- New and improved English subtitle translation
Меню:Английский, анимированное, озвученное.Сэмпл:https://www.sendspace.com/file/mgfrbuТип релиза:DVD9 (Custom)
Контейнер:DVD-Video
Видео:NTSC 4:3 (720x480) VBR, 6263 Кбит/сек, 23,976 кадра/секАудио :Японский: AC3, 1 ch, 48.0 KHz, 384 Кбит/сек (Оригинал)Формат субтитров:prerendered (DVD/IDX+SUB)

Dvd Info

Title: House DVD-9_Custom_Criterion_#539
Size: 7.64 Gb ( 8 010 482,00 KBytes ) - DVD-9
Enabled regions: 1, 2, 3, 4, 5, 6, 7, 8
VTS_01 :
Play Length: 00:00:00
Video: NTSC 4:3 (720x480) VBR
VTS_02 :
Play Length: 01:27:53
Video: NTSC 4:3 (720x480) VBR
Audio:
Japanese, AC3, 1/0 (C) ch, 384 kbps, Delay 0 mSec
Subtitles:
Russian
English
VTS_03 :
Play Length: 00:00:20
Video: NTSC 4:3 (720x480) VBR
VTS_04 :
Play Length: 00:39:13
Video: NTSC 4:3 (720x480) VBR
Audio:
Japanese, AC3, 1/0 (C) ch, 192 kbps, Delay 0 mSec
Subtitles:
English
VTS_05 :
Play Length: 00:45:54
Video: NTSC 16:9 (720x480) VBR, Auto Letterboxed
Audio:
Japanese, AC3, 1/0 (C) ch, 192 kbps, Delay 0 mSec
Subtitles:
English
VTS_06 :
Play Length: 00:01:37
Video: NTSC 4:3 (720x480) VBR
Audio:
Japanese, AC3, 1/0 (C) ch, 192 kbps, Delay 0 mSec
Subtitles:
English
VTS_07 :
Play Length: 00:03:46
Video: NTSC 16:9 (720x480) VBR, Auto Letterboxed
Audio:
English, AC3, 1/0 (C) ch, 192 kbps, Delay 0 mSec
VTS_08 :
Play Length: 00:00:00
Video: NTSC 4:3 (720x480) VBR

Mediainfo

Общее
Полное имя: F:\House DVD-9_Custom_Criterion_#539\VIDEO_TS\VTS_02_2.VOB
Формат : MPEG-PS
Размер файла : 1024 Мбайт
Продолжительность : 21 м.
Режим общего битрейта : Переменный
Общий поток : 6782 Кбит/сек
Видео
Идентификатор : 224 (0xE0)
Формат : MPEG Video
Версия формата : Version 2
Профиль формата : Main@Main
Параметр BVOP формата : Да
Параметр матрицы формата : Выборочная
Параметр GOP формата : M=3, N=12
Продолжительность : 21 м.
Вид битрейта : Переменный
Битрейт : 6263 Кбит/сек
Максимальный битрейт : 9600 Кбит/сек
Ширина : 720 пикселей
Высота : 480 пикселей
Соотношение сторон : 4:3
Частота кадров : 23,976 кадра/сек
Стандарт вещания : NTSC
Цветовое пространство : YUV
Субдискретизация насыщенности : 4:2:0
Битовая глубина : 8 бит
Тип развёртки : Прогрессивная
Порядок развёртки : 2:3 Pulldown
Метод сжатия : С потерями
Бит/(Пиксели*Кадры) : 0.756
Временной код первого кадра : 01:20:48:21
Оригинал временного кода : Group of pictures header
Размер потока : 946 Мбайт (92%)
Аудио
Идентификатор : 189 (0xBD)-128 (0x80)
Формат : AC-3
Формат/Информация : Audio Coding 3
Расширение режима : CM (complete main)
Параметр Endianness формата : Big
Режим смешивания : DVD-Video
Продолжительность : 21 м.
Вид битрейта : Постоянный
Битрейт : 384 Кбит/сек
Каналы : 1 канал
Расположение каналов : Front: C
Частота : 48,0 КГц
Битовая глубина : 16 бит
Метод сжатия : С потерями
Задержка видео : -424 мс.
Размер потока : 58,0 Мбайт (6%)
Текст #1
Идентификатор : 189 (0xBD)-32 (0x20)
Формат : RLE
Формат/Информация : Run-length encoding
Режим смешивания : DVD-Video
Продолжительность : 21 м.
Задержка видео : 1 с. 852 мс.
Текст #2
Идентификатор : 189 (0xBD)-33 (0x21)
Формат : RLE
Формат/Информация : Run-length encoding
Режим смешивания : DVD-Video
Продолжительность : 21 м.
Задержка видео : 1 с. 352 мс.

Скриншоты меню

Скриншоты


Скриншоты дополнительных материалов


Полиграфия


[teatrix.ru].t7078.torrent 
Торрент: Зарегистрирован [ 2015-10-11 11:22 ] · A58684A592BB412ADF0D4F2A7CB02C14511C1950

Скачать .torrent

Скачать

41 KB

Статус: проверено
Скачан: 0 раз
Размер: 7.64 GB
terms.php



Быстрый ответ

Имя:

      
Для отправки сообщений необходимо включить JavaScript
Показать сообщения:    

Текущее время: 07-Дек 11:32

Часовой пояс: UTC + 3


Вы можете начинать темы
Вы можете отвечать на сообщения
Вы не можете редактировать свои сообщения
Вы не можете удалять свои сообщения
Вы не можете голосовать в опросах
Вы не можете прикреплять файлы к сообщениям
Вы можете скачивать файлы