За облаками / Par dela les nuages / Al di la` delle nuvole (Микеланджело Антониони / Michelangelo Antonioni, Вим Вендерс / Wim Wenders) [1995, Германия, Франция, Италия, драма, DVD5] AVO (Константин Дьяконов) + Sub Rus


Статистика раздачи [Обновить пиров]
Размер:  4.21 GB   |    Зарегистрирован:  1 год 1 месяц   |    Скачан:  0 раз

Полного источника не было: Никогда

 
   
 
 
 

[Цитировать]

За облаками / Par dela les nuages / Al di la` delle nuvole
Страна: Германия, Франция, Италия
Жанр: драма
Год выпуска: 1995
Продолжительность: 01:44:55
Дистрибьютор: Мост-Медиа
Перевод: Авторский (одноголосый закадровый) Константин Дьяконов
Cубтитры: русские
Оригинальная аудиодорожка: французский
Режиссер: Микеланджело Антониони / Michelangelo Antonioni, Вим Вендерс / Wim Wenders
В ролях:
Фанни Ардан
Кьяра Казелли
Ирен Жакоб
Джон Малкович
Софи Марсо
Венсан Перес
Жан Рено
Ким Росси Стюарт
Инес Састре
Питер Уэллер
Описание: Встречи с незнакомцами, наблюдения, прогулки с фотоаппаратом по улицам французских и итальянских городов вдохновляют режиссера фильма на четыре рассказа о любви. В основе этих историй — желание, убийство, расставание и вера.
Фильм по книге воспоминаний Антониони, состоящий из нескольких мелодраматических историй, поставленный наполовину парализованным режиссером. Снимать эту картину Антониони помогал Вим Вендерс.
Сэмпл: http://multi-up.com/1062940
Качество видео: DVD5
Формат видео: DVD Video
Видео: PAL 4:3 (720x576) VBR, ~ 5000 kbps avg
Аудио 1: AC3, 2/0 (L,R)+LFE ch, 384 kbps, Russian
Аудио 2: AC3, 2/0 (L,R)+LFE ch, 384 kbps, Fre+Eng+It

DVDInfo

Title: Par dela les nuagesSize: 4.21 Gb ( 4 412 602,00 KBytes ) - DVD-5Enabled regions: 1, 2, 3, 4, 5, 6, 7, 8
VTS_01 : Play Length: 01:44:55+{00:00:00} Video: PAL 4:3 (720x576) VBR, Letterboxed Audio: Not specified (Dolby AC3, 3 ch) Not specified (Dolby AC3, 3 ch) Subtitles: Not specified

MediaInfo

General
Complete name : VTS_01_1.VOB
Format : MPEG-PS
File size : 1 024 MiB
Duration : 30mn 11s
Overall bit rate mode : Variable
Overall bit rate : 4 742 Kbps
Video
ID : 224 (0xE0)
Format : MPEG Video
Format version : Version 2
Format profile : Main@Main
Format settings, BVOP : Yes
Format settings, Matrix : Default
Duration : 30mn 11s
Bit rate mode : Variable
Bit rate : 3 879 Kbps
Maximum bit rate : 8 900 Kbps
Width : 720 pixels
Height : 576 pixels
Display aspect ratio : 4:3
Frame rate : 25.000 fps
Standard : PAL
Color space : YUV
Chroma subsampling : 4:2:0
Bit depth : 8 bits
Scan type : Interlaced
Scan order : Top Field First
Compression mode : Lossy
Bits/(Pixel*Frame) : 0.374
Stream size : 838 MiB (82%)
Audio #1
ID : 189 (0xBD)-128 (0x80)
Format : AC-3
Format/Info : Audio Coding 3
Mode extension : CM (complete main)
Muxing mode : DVD-Video
Duration : 30mn 11s
Bit rate mode : Constant
Bit rate : 384 Kbps
Channel(s) : 3 channels
Channel positions : Front: L R, LFE
Sampling rate : 48.0 KHz
Bit depth : 16 bits
Compression mode : Lossy
Stream size : 82.9 MiB (8%)
Audio #2
ID : 189 (0xBD)-129 (0x81)
Format : AC-3
Format/Info : Audio Coding 3
Mode extension : CM (complete main)
Muxing mode : DVD-Video
Duration : 30mn 11s
Bit rate mode : Constant
Bit rate : 384 Kbps
Channel(s) : 3 channels
Channel positions : Front: L R, LFE
Sampling rate : 48.0 KHz
Bit depth : 16 bits
Compression mode : Lossy
Stream size : 82.9 MiB (8%)
Text
ID : 189 (0xBD)-32 (0x20)
Format : RLE
Format/Info : Run-length encoding
Muxing mode : DVD-Video
Delay relative to video : 10s 120ms

Скриншоты меню




Скриншот c названием фильма

Скриншоты





[teatrix.ru].t7085.torrent 
Торрент: Зарегистрирован [ 2015-10-11 11:22 ] · EAABEEC161B9813D9174E778F80E3BA9E7B6715E

Скачать .torrent

Скачать

22 KB

Статус: проверено
Скачан: 0 раз
Размер: 4.21 GB
terms.php



Быстрый ответ

Имя:

      
Для отправки сообщений необходимо включить JavaScript
Показать сообщения:    

Текущее время: 03-Дек 01:21

Часовой пояс: UTC + 3


Вы можете начинать темы
Вы можете отвечать на сообщения
Вы не можете редактировать свои сообщения
Вы не можете удалять свои сообщения
Вы не можете голосовать в опросах
Вы не можете прикреплять файлы к сообщениям
Вы можете скачивать файлы