Светлые ветры / Fenyes szelek / The Confrontation (Миклош Янчо / Miklos Jancso) [1968, Венгрия, Драма, Политический, DVD9 (Custom)] VO + Sub Eng, Rus(marwcharw) + Original Mag / Mokep


Статистика раздачи [Обновить пиров]
Размер:  6.7 GB   |    Зарегистрирован:  1 год 1 месяц   |    Скачан:  0 раз

Полного источника не было: Никогда

 
   
 
 
 

[Цитировать]

Светлые ветры / Fenyes szelek / The Confrontation«Пусть наших стягов алый шелк цветные овевают ветры!»
Страна:Венгрия
Студия:MAFILM 1, Jatekfilmstudio.
Жанр:Драма, ПолитическийГод выпуска:1968
Продолжительность:01:17:34Перевод 1:Одноголосый закадровыйПеревод 2:Субтитры marwcharw 2 видаCубтитры:Английские, Русские
Оригинальная аудиодорожка:Венгерский
Премьера (мир):6.02.1969
Режиссер:Миклош Янчо / Miklos JancsoВ ролях:Андреа Драхота, Кати Ковач, Лайош Балажович, Андраш Козак, Андраш Балинт, Йожеф Мадараш, Иштван Ури, Тибор Орбан, Адриенна Ченгери, Миклош Чаньи
Описание:Это обращение авторов к собственной юности, к 1945 – 1948 годам, когда молодежь, съехавшаяся в столицу и в другие крупные венгерские города учиться, объединялась в так называемых "народных коллегиумах" (студенческих общежитиях). Поколением "светлых ветров" назвали потом этих решительных и яростных юношей и девушек, которые пели до хрипоты свой гимн и спешили перестраивать мир по своему идеалу. В фильме, представляющем собою красочное, хореографически-хоровое действо, мы становимся свидетелями столкновения непримиримых коллегистов с учениками одной из монастырских школ.
Доп. информация:Исходник найден в сети.Одноголосый закадровый
Русские субтитры- marwcharwИмеющиеся в раздаче субтитры содержат только названия и переводы текстов некоторых из звучащих в фильме песен.Переводы всех диалогов - в озвучке.Реавторинг Нордер.Огромное Спасибо Всем, без чьей помощи этот релиз не состоялся бы!Сценарий:Дьюла Хернади, Миклош ЯнчоПродюсер:Jozsef Bajusz, Otto FoldОператор:Тамаш ШомлоКомпозитор:Paul ArmaХудожник:Endre Benyo, Тильда Гати, Erzsebet UjhegyiМонтаж:Зольтан Фаркаш

Рецензия

Софт

PGCDemux (извлечение).
BeSweet, Sony Vegas 9 (звук).
DVD-lab PRO 2, Subtitle Workshop (субтитры).
MuxMan (сборка). DvdReMakePro (финал).

Бонусы:(Без перевода)

Меню:Венгерский, анимированное, озвученное.Сэмпл:https://www.sendspace.com/file/353y0sТип релиза:DVD9 (Custom)
Контейнер:DVD-Video
Видео:PAL 4:3 (720x576) VBR, 9000 Кбит/сек, 25,000 кадров/секАудио 1:Русский:AC3, 2 ch, 48.0 KHz, 192 Кбит/сек / Одноголосый закадровыйАудио 2:Венгерский:AC3, 2 ch, 48.0 KHz, 256 Кбит/сек / (Оригинал)Формат субтитров:prerendered (DVD/IDX+SUB)

Dvd Info

Title: Fenyes szelek DVD-9_Custom
Size: 6.70 Gb ( 7 021 052,00 KBytes ) - DVD-9
Enabled regions: 1, 2, 3, 4, 5, 6, 7, 8
VTS_01 :
Play Length: 01:17:34
Video: PAL 4:3 (720x576) VBR
Audio:
Russian (Dolby AC3, 2 ch)
Magyar (Dolby AC3, 2 ch)
Subtitles:
English
Russian
Russian
VTS_02 :
Play Length: 00:00:24
Video: PAL 4:3 (704x576) VBR
Audio:
Magyar (Dolby AC3, 2 ch)
VTS_03 :
Play Length: 00:00:24+00:00:34+00:00:35+00:00:37+00:33:21
Video: PAL 4:3 (720x576) VBR
Audio:
Magyar (Dolby AC3, 2 ch)

Mediainfo

Общее
Полное имя : F:\Fenyes szelek DVD-9_Custom\VIDEO_TS\VTS_01_1.VOB
Формат : MPEG-PS
Размер файла : 1024 Мбайт
Продолжительность : 14 м.
Режим общего битрейта : Переменный
Общий поток : 9611 Кбит/сек
Видео
Идентификатор : 224 (0xE0)
Формат : MPEG Video
Версия формата : Version 2
Профиль формата : Main@Main
Параметр BVOP формата : Да
Параметр матрицы формата : Выборочная
Параметр GOP формата : M=3, N=12
Структура изображения : Frame
Продолжительность : 14 м.
Вид битрейта : Переменный
Битрейт : 9000 Кбит/сек
Ширина : 720 пикселей
Высота : 576 пикселей
Соотношение сторон : 4:3
Частота кадров : 25,000 кадров/сек
Стандарт вещания : PAL
Цветовое пространство : YUV
Субдискретизация насыщенности : 4:2:0
Битовая глубина : 8 бит
Тип развёртки : Чересстрочная
Порядок развёртки : Верхнее поле первое
Метод сжатия : С потерями
Бит/(Пиксели*Кадры) : 0.868
Временной код первого кадра : 00:59:59:00
Оригинал временного кода : Group of pictures header
GOP, открыто/закрыто : Открыто
GOP, открыто/закрыто на первом кадре : Закрыто
Размер потока : 956 Мбайт (93%)
Аудио #1
Идентификатор : 189 (0xBD)-128 (0x80)
Формат : AC-3
Формат/Информация : Audio Coding 3
Расширение режима : CM (complete main)
Параметр Endianness формата : Big
Режим смешивания : DVD-Video
Продолжительность : 14 м.
Вид битрейта : Постоянный
Битрейт : 192 Кбит/сек
Каналы : 2 канала
Расположение каналов : Front: L R
Частота : 48,0 КГц
Метод сжатия : С потерями
Размер потока : 20,5 Мбайт (2%)
Аудио #2
Идентификатор : 189 (0xBD)-129 (0x81)
Формат : AC-3
Формат/Информация : Audio Coding 3
Расширение режима : CM (complete main)
Параметр Endianness формата : Big
Режим смешивания : DVD-Video
Продолжительность : 14 м.
Вид битрейта : Постоянный
Битрейт : 256 Кбит/сек
Каналы : 2 канала
Расположение каналов : Front: L R
Частота : 48,0 КГц
Метод сжатия : С потерями
Размер потока : 27,3 Мбайт (3%)
Текст #1
Идентификатор : 189 (0xBD)-32 (0x20)
Формат : RLE
Формат/Информация : Run-length encoding
Режим смешивания : DVD-Video
Текст #2
Идентификатор : 189 (0xBD)-33 (0x21)
Формат : RLE
Формат/Информация : Run-length encoding
Режим смешивания : DVD-Video
Текст #3
Идентификатор : 189 (0xBD)-34 (0x22)
Формат : RLE
Формат/Информация : Run-length encoding
Режим смешивания : DVD-Video

Скриншоты меню

Скриншоты

Скриншоты доп. материалов




Полиграфия

[teatrix.ru].t7086.torrent 
Торрент: Зарегистрирован [ 2015-10-11 11:22 ] · CAFECC1351605D605F928DC481336BD9557A0AD6

Скачать .torrent

Скачать

35 KB

Статус: проверено
Скачан: 0 раз
Размер: 6.7 GB
terms.php



Быстрый ответ

Имя:

      
Для отправки сообщений необходимо включить JavaScript
Показать сообщения:    

Текущее время: 05-Дек 21:37

Часовой пояс: UTC + 3


Вы можете начинать темы
Вы можете отвечать на сообщения
Вы не можете редактировать свои сообщения
Вы не можете удалять свои сообщения
Вы не можете голосовать в опросах
Вы не можете прикреплять файлы к сообщениям
Вы можете скачивать файлы