И твою маму тоже / And Your Mother Too / Y Tu Mama Tambien (Альфонсо Куарон / Alfonso Cuarón) [2001, Мексика, Драма, DVD9 (Custom)+DVD9] DVO + AVO (Ю. Сербин) + Sub Eng, Rus + Original Spa / Criterion Collection#723


Статистика раздачи [Обновить пиров]
Размер:  13.37 GB   |    Зарегистрирован:  1 год 1 месяц   |    Скачан:  0 раз

Полного источника не было: Никогда

 
   
 
 
 

[Цитировать]

И твою маму тоже / And Your Mother Too / Y Tu Mama Tambien / Criterion Collection#723«La vida tiene sus maneras de ensenarnos. La vida tiene sus maneras de confundirnos. La vida tiene sus maneras de cambiarnos. La vida tiene sus maneras de asombrarnos. La vida tiene sus maneras de herirnos. La vida tiene sus maneras de curarnos. La vida tiene sus maneras de inspirarnos»
Страна:Мексика
Студия:Anhelo Producciones, Besame Mucho Pictures, Producciones Anhelo.
Жанр:Драма, Комедия, Приключения
Год выпуска:2001
Продолжительность:01:45:45
Производитель:The Criterion Collection #723
Перевод 1:Профессиональный (двухголосый закадровый)Перевод 2:Авторский (одноголосый закадровый) Ю. СербинCубтитры:Английские, Русские
Оригинальная аудиодорожка:Испанский
Премьера (мир):8.06.2001
Режиссер:Альфонсо Куарон / Alfonso Cuaron
В ролях:Диего Луна, Гаэль Гарсиа Берналь, Марибель Верду, Ана Лопез Меркадо, Даниэль Хименес Качо, Нэйтан Гринбер, Вероника Ланхер, Мария Аура, Жизелль Одри, Артуро РиосОписание: Двое друзей, не обремененных моральными принципами и мучимые подростковыми гормонами, ищут под жарким солнцем Мексики приключений. Ищут — и находят.
Познакомившись на празднике с испанской красоткой Луизой, чье сердце безнадежно разбито, они приглашают ее отправиться в поездку на мифический пляж с романтическим названием «Небесные уста» — в мир фантазий и грез, где исполняются мечты.
Луиза, решив развеяться и заодно излечить свое разбитое сердце, принимает приглашение мальчиков. Они еще не знают самого главного…
Доп. информация:Исходник найден в сети.Профессиональный (двухголосый закадровый) и русские субтитрыРусский DVO изначально дутый, переведен в AC3, 2 ch, 48.0 KHz, 192 Кбит/сек.Авторский (одноголосый закадровый) Ю. СербинПредоставил звуковую дорожку лорди74.Реавторинг Нордер.Огромное Спасибо Всем, без чьей помощи этот релиз не состоялся бы!Продюсер:Альфонсо Куарон, Хорхе Вергара, Серхио АгероСценарий:Альфонсо Куарон, Карлос КуаронОператор:Эммануэль ЛюбецкиХудожник:Марк Бедиа, Мигель Анхель Альварес, Гильермо КоссиоМонтаж:Альфонсо Куарон, Алекс Родригес

Награды и номинации


Рецензия

Софт

PGCDemux (извлечение).
BeSweet, Sony Vegas 9 (звук).
DVD-lab PRO 2, Subtitle Workshop (субтитры).
MuxMan (сборка). DvdReMakePro (финал).

Бонусы:(Без перевода)

Two new pieces on the making of the film, featuring interviews, recorded at the time of production and in 2014, with actors Gael García Bernal, Diego Luna, and Maribel Verdú; Alfonso Cuarón; cowriter Carlos Cuarón; and Lubezki
New interview with philosopher Slavoj Žižek about the film’s social and political aspects
On-set documentary from 2001
Deleted scenes
You Owe Me One (2002), a short film by Carlos Cuarón
Trailers
New English subtitle translation
Меню:Английский, анимированное, озвученное.Сэмпл Диск 1:https://www.sendspace.com/file/t6v8cyСэмпл Диск 2:https://www.sendspace.com/file/93ilh2Тип релиза:DVDх9(Custom)+DVDх9
Контейнер:DVD-Video
Видео:NTSC 16:9 (720x480) VBR, Auto Letterboxed, 8524 Кбит/сек, 23,976 кадра/сек
Аудио 1:Русский:AC3, 2 ch, 48.0 KHz, 192 Кбит/сек / Профессиональный (двухголосый закадровый)Аудио 2:Русский:AC3, 2 ch, 48.0 KHz, 192 Кбит/сек / Авторский (одноголосый закадровый) Ю.СербинАудио 3:Испанский:AC3, 6 ch, 48.0 KHz, 448 Кбит/сек / Оригинал
Формат субтитров: prerendered (DVD/IDX+SUB)

Dvd Info- Диск 1

Title: Диск 1
Size: 7.26 Gb ( 7 607 768,00 KBytes ) - DVD-9
Enabled regions: 1, 2, 3, 4, 5, 6, 7, 8
VTS_01 :
Play Length: 00:00:00
Video: NTSC 16:9 (720x480) VBR, Auto Letterboxed
VTS_02 :
Play Length: 01:45:45
Video: NTSC 16:9 (720x480) VBR, Auto Letterboxed
Audio:
Russian (Dolby AC3, 2 ch)
Russian (Dolby AC3, 2 ch)
Espanol (Dolby AC3, 6 ch)
Subtitles:
English
Russian
VTS_03 :
Play Length: 00:00:20
Video: NTSC 16:9 (720x480) VBR, Auto Pan&Scan
VTS_04 :
Play Length: 00:02:24
Video: NTSC 16:9 (720x480) VBR, Auto Letterboxed
Audio:
English (Dolby AC3, 2 ch)
VTS_05 :
Play Length: 00:00:30
Video: NTSC 4:3 (720x480) VBR
Audio:
English (Dolby AC3, 1 ch)
VTS_06 :
Play Length: 00:00:00
Video: NTSC 4:3 (720x480) VBR

Dvd Info- Диск 2

Title: Диск 2
Size: 6.12 Gb ( 6 412 262,00 KBytes ) - DVD-9
Enabled regions: 1, 2, 3, 4, 5, 6, 7, 8
VTS_01 :
Play Length: 00:00:00
Video: NTSC 16:9 (720x480) VBR, Auto Letterboxed
VTS_02 :
Play Length: 00:40:50
Video: NTSC 16:9 (720x480) VBR, Auto Letterboxed
Audio:
Espanol (Dolby AC3, 2 ch)
Subtitles:
English
VTS_03 :
Play Length: 00:10:51
Video: NTSC 16:9 (720x480) VBR, Auto Letterboxed
Audio:
Espanol (Dolby AC3, 2 ch)
Subtitles:
English
VTS_04 :
Play Length: 00:09:01
Video: NTSC 16:9 (720x480) VBR, Auto Letterboxed
Audio:
English (Dolby AC3, 2 ch)
Subtitles:
English
VTS_05 :
Play Length: 00:22:34
Video: NTSC 4:3 (720x480) VBR
Audio:
Espanol (Dolby AC3, 2 ch)
Subtitles:
English
VTS_06 :
Play Length: 00:12:15
Video: NTSC 16:9 (720x480) VBR, Auto Letterboxed
Audio:
Espanol (Dolby AC3, 2 ch)
Subtitles:
English
English
VTS_07 :
Play Length: 00:03:43
Video: NTSC 16:9 (720x480) VBR, Auto Letterboxed
Audio:
Espanol (Dolby AC3, 1 ch)
Subtitles:
English
VTS_08 :
Play Length: 00:00:00
Video: NTSC 4:3 (720x480) VBR

MediaInfo- Диск 1

Общее
Полное имя : F:\Y tu mama tambien DVD-9_Custom+DVD-9_Criterion#723\Диск 1\VIDEO_TS\VTS_02_1.VOB
Формат : MPEG-PS
Размер файла : 1024 Мбайт
Продолжительность : 14 м.
Режим общего битрейта : Переменный
Общий поток : 9546 Кбит/сек
Видео
Идентификатор : 224 (0xE0)
Формат : MPEG Video
Версия формата : Version 2
Профиль формата : Main@Main
Параметр BVOP формата : Да
Параметр матрицы формата : Выборочная
Параметр GOP формата : Variable
Продолжительность : 14 м.
Вид битрейта : Переменный
Битрейт : 8524 Кбит/сек
Максимальный битрейт : 9800 Кбит/сек
Ширина : 720 пикселей
Высота : 480 пикселей
Соотношение сторон : 16:9
Частота кадров : 23,976 кадра/сек
Цветовое пространство : YUV
Субдискретизация насыщенности : 4:2:0
Битовая глубина : 8 бит
Тип развёртки : Прогрессивная
Порядок развёртки : 2:3 Pulldown
Метод сжатия : С потерями
Бит/(Пиксели*Кадры) : 1.029
Временной код первого кадра : 00:59:36:00
Оригинал временного кода : Group of pictures header
Размер потока : 914 Мбайт (89%)
Аудио #1
Идентификатор : 189 (0xBD)-128 (0x80)
Формат : AC-3
Формат/Информация : Audio Coding 3
Расширение режима : CM (complete main)
Параметр Endianness формата : Big
Режим смешивания : DVD-Video
Продолжительность : 14 м.
Вид битрейта : Постоянный
Битрейт : 192 Кбит/сек
Каналы : 2 канала
Расположение каналов : Front: L R
Частота : 48,0 КГц
Метод сжатия : С потерями
Размер потока : 20,6 Мбайт (2%)
Аудио #2
Идентификатор : 189 (0xBD)-129 (0x81)
Формат : AC-3
Формат/Информация : Audio Coding 3
Расширение режима : CM (complete main)
Параметр Endianness формата : Big
Режим смешивания : DVD-Video
Продолжительность : 14 м.
Вид битрейта : Постоянный
Битрейт : 192 Кбит/сек
Каналы : 2 канала
Расположение каналов : Front: L R
Частота : 48,0 КГц
Метод сжатия : С потерями
Размер потока : 20,6 Мбайт (2%)
Аудио #3
Идентификатор : 189 (0xBD)-130 (0x82)
Формат : AC-3
Формат/Информация : Audio Coding 3
Расширение режима : CM (complete main)
Параметр Endianness формата : Big
Режим смешивания : DVD-Video
Продолжительность : 14 м.
Вид битрейта : Постоянный
Битрейт : 448 Кбит/сек
Каналы : 6 каналов
Расположение каналов : Front: L C R, Side: L R, LFE
Частота : 48,0 КГц
Метод сжатия : С потерями
Размер потока : 48,0 Мбайт (5%)
Текст #1
Идентификатор : 189 (0xBD)-32 (0x20)
Формат : RLE
Формат/Информация : Run-length encoding
Режим смешивания : DVD-Video
Текст #2
Идентификатор : 189 (0xBD)-33 (0x21)
Формат : RLE
Формат/Информация : Run-length encoding
Режим смешивания : DVD-Video
Текст #3
Идентификатор : 189 (0xBD)-34 (0x22)
Формат : RLE
Формат/Информация : Run-length encoding
Режим смешивания : DVD-Video

MediaInfo- Диск 2

Общее
Полное имя : F:\Y Tu Mama Tambien DVD-9_Custom+DVD-9_Criterion#723\Диск 2\VIDEO_TS\VTS_03_1.VOB
Формат : MPEG-PS
Размер файла : 689 Мбайт
Продолжительность : 10 м.
Режим общего битрейта : Переменный
Общий поток : 8863 Кбит/сек
Видео
Идентификатор : 224 (0xE0)
Формат : MPEG Video
Версия формата : Version 2
Профиль формата : Main@Main
Параметр BVOP формата : Да
Параметр матрицы формата : Выборочная
Параметр GOP формата : Variable
Структура изображения : Frame
Продолжительность : 10 м.
Вид битрейта : Переменный
Битрейт : 8494 Кбит/сек
Максимальный битрейт : 9800 Кбит/сек
Ширина : 720 пикселей
Высота : 480 пикселей
Соотношение сторон : 16:9
Частота кадров : 29,970 кадров/сек
Стандарт вещания : NTSC
Цветовое пространство : YUV
Субдискретизация насыщенности : 4:2:0
Битовая глубина : 8 бит
Тип развёртки : Чересстрочная
Порядок развёртки : Верхнее поле первое
Метод сжатия : С потерями
Бит/(Пиксели*Кадры) : 0.820
Временной код первого кадра : 01:00:00:00
Оригинал временного кода : Group of pictures header
Размер потока : 660 Мбайт (96%)
Аудио
Идентификатор : 189 (0xBD)-128 (0x80)
Формат : AC-3
Формат/Информация : Audio Coding 3
Расширение режима : CM (complete main)
Параметр Endianness формата : Big
Режим смешивания : DVD-Video
Продолжительность : 10 м.
Вид битрейта : Постоянный
Битрейт : 192 Кбит/сек
Каналы : 2 канала
Расположение каналов : Front: L R
Частота : 48,0 КГц
Метод сжатия : С потерями
Размер потока : 14,9 Мбайт (2%)
Текст #1
Идентификатор : 189 (0xBD)-32 (0x20)
Формат : RLE
Формат/Информация : Run-length encoding
Режим смешивания : DVD-Video
Задержка видео : 734 мс.
Текст #2
Идентификатор : 189 (0xBD)-33 (0x21)
Формат : RLE
Формат/Информация : Run-length encoding
Режим смешивания : DVD-Video
Задержка видео : 734 мс.

Скриншоты меню-Диск 1

Скриншоты фильма-Диск 1

Скриншоты доп. материалов-Диск 1


Скриншоты меню-Диск 2


Скриншоты доп. материалов-Диск 2




[teatrix.ru].t7090.torrent 
Торрент: Зарегистрирован [ 2015-10-11 11:22 ] · 4DA36C6E38C53EB53014E08BC43D874877E95EAE

Скачать .torrent

Скачать

72 KB

Статус: проверено
Скачан: 0 раз
Размер: 13.37 GB
terms.php



Быстрый ответ

Имя:

      
Для отправки сообщений необходимо включить JavaScript
Показать сообщения:    

Текущее время: 05-Дек 15:30

Часовой пояс: UTC + 3


Вы можете начинать темы
Вы можете отвечать на сообщения
Вы не можете редактировать свои сообщения
Вы не можете удалять свои сообщения
Вы не можете голосовать в опросах
Вы не можете прикреплять файлы к сообщениям
Вы можете скачивать файлы