Мясо / Vlees / Meat / Basar (Виктор Ньивенхёйс, Мартье Сейферт / Victor Nieuwenhuijs, Maartje Seyferth) [2010, Нидерланды, драма, DVD9 (Custom)] VO (Хамстер) + Sub Rus + Original Dut


Статистика раздачи [Обновить пиров]
Размер:  4.47 GB   |    Зарегистрирован:  1 год 1 месяц   |    Скачан:  0 раз

Полного источника не было: Никогда

 
   
 
 
 

[Цитировать]

Мясо / Vlees / Meat / Basar
Страна: Нидерланды
Жанр: драма
Год выпуска: 2010
Продолжительность: 01:22:44
Перевод: Одноголосый закадровый Хамстер
Cубтитры: русские © die_mondnacht
Оригинальная аудиодорожка: нидерландский
Режиссер: Виктор Ньивенхёйс, Мартье Сейферт / Victor Nieuwenhuijs, Maartje Seyferth
В ролях: Нелли Беннер, Титус Мейзелар, Хьюго Метсерс, Франс Баккер
Описание: Взрослый мясник-эротоман и его юная работница-вуайеристка, снимающая все на видео, составляют романтический дуэт в истории, которая разворачивается внутри холодного склада, среди висящих вокруг туш животных, истории, достигающей такого накала, что может растаять айсберг..
Доп. информация: Диск из собственной колекции.
Бонусы: Все допы удалены (не мной)
Сэмпл: http://sendfile.su/1142801
Тип релиза: DVD9 (Custom)
Контейнер: DVD-Video
Видео: PAL 16:9 (720x576) VBR Auto Pan&Scan
Аудио: Russian (Dolby AC3, 192 Kbps, 2 ch)
Аудио 2: Nederlands (Dolby AC3, 448 Kbps, 6 ch)
Формат субтитров: prerendered (DVD/IDX+SUB)

DVDInfo

Size: 4.47 Gb ( 4 683 126 KBytes ) - DVD-9
Enabled regions: 1, 2, 3, 4, 5, 6, 7, 8
VTS_01 :
Play Length: 01:22:44
Video: PAL 16:9 (720x576) VBR, Auto Pan&Scan
Audio:
Russian (Dolby AC3, 2 ch)
Nederlands (Dolby AC3, 6 ch)
Subtitles:
Russian
English
VTS_02 :
Play Length:
Video: PAL 16:9 (720x576) VBR, Auto Pan&Scan
VTS_03 :
Play Length:
Video: PAL 4:3 (720x576) VBR
VTS_04 :
Play Length:
Video: PAL 16:9 (720x576) VBR, Auto Pan&Scan
VTS_05 :
Play Length:
Video: PAL 4:3 (720x576) VBR
Menu Video:
PAL 16:9 (720x576) VBR
Auto Pan&Scan
Menu English Language Unit :
Root Menu

MediaInfo

General
Complete name : K:\Vlees_2010\VIDEO_TS\VTS_01_1.VOB
Format : MPEG-PS
File size : 1 024 MiB
Duration : 19mn 8s
Overall bit rate mode : Variable
Overall bit rate : 7 478 Kbps
Video
ID : 224 (0xE0)
Format : MPEG Video
Format version : Version 2
Format profile : Main@Main
Format settings, BVOP : Yes
Format settings, Matrix : Custom
Format settings, GOP : M=3, N=12
Duration : 19mn 8s
Bit rate mode : Variable
Bit rate : 6 690 Kbps
Maximum bit rate : 7 400 Kbps
Width : 720 pixels
Height : 576 pixels
Display aspect ratio : 16:9
Frame rate : 25.000 fps
Standard : PAL
Color space : YUV
Chroma subsampling : 4:2:0
Bit depth : 8 bits
Scan type : Interlaced
Scan order : Top Field First
Compression mode : Lossy
Bits/(Pixel*Frame) : 0.645
Stream size : 916 MiB (89%)
Color primaries : BT.601 PAL
Transfer characteristics : BT.470 System B, BT.470 System G
Matrix coefficients : BT.601
Audio #1
ID : 189 (0xBD)-128 (0x80)
Format : AC-3
Format/Info : Audio Coding 3
Mode extension : CM (complete main)
Format settings, Endianness : Big
Muxing mode : DVD-Video
Duration : 19mn 8s
Bit rate mode : Constant
Bit rate : 192 Kbps
Channel(s) : 2 channels
Channel positions : Front: L R
Sampling rate : 48.0 KHz
Bit depth : 16 bits
Compression mode : Lossy
Stream size : 26.3 MiB (3%)
Audio #2
ID : 189 (0xBD)-129 (0x81)
Format : AC-3
Format/Info : Audio Coding 3
Mode extension : CM (complete main)
Format settings, Endianness : Big
Muxing mode : DVD-Video
Duration : 19mn 8s
Bit rate mode : Constant
Bit rate : 448 Kbps
Channel(s) : 6 channels
Channel positions : Front: L C R, Side: L R, LFE
Sampling rate : 48.0 KHz
Bit depth : 16 bits
Compression mode : Lossy
Stream size : 61.3 MiB (6%)
Text #1
ID : 189 (0xBD)-32 (0x20)
Format : RLE
Format/Info : Run-length encoding
Muxing mode : DVD-Video
Duration : 19mn 6s
Delay relative to video : 1s 0ms
Text #2
ID : 189 (0xBD)-33 (0x21)
Format : RLE
Format/Info : Run-length encoding
Muxing mode : DVD-Video
Menu

Постеры

Скриншоты меню

[teatrix.ru].t7093.torrent 
Торрент: Зарегистрирован [ 2015-10-11 11:22 ] · F8694B06893B0632A3630CABBA6D815B080512AF

Скачать .torrent

Скачать

24 KB

Статус: проверено
Скачан: 0 раз
Размер: 4.47 GB
terms.php



Быстрый ответ

Имя:

      
Для отправки сообщений необходимо включить JavaScript
Показать сообщения:    

Текущее время: 04-Дек 11:13

Часовой пояс: UTC + 3


Вы можете начинать темы
Вы можете отвечать на сообщения
Вы не можете редактировать свои сообщения
Вы не можете удалять свои сообщения
Вы не можете голосовать в опросах
Вы не можете прикреплять файлы к сообщениям
Вы можете скачивать файлы