Марта / Martha (Райнер Вернер Фассбиндер / Rainer Werner Fassbinder) [1974, Германия (ФРГ), Триллер, Драма, DVD9 (Custom)] MVO + Sub Eng + Original Ger / Fantoma


Статистика раздачи [Обновить пиров]
Размер:  7.95 GB   |    Зарегистрирован:  1 год 1 месяц   |    Скачан:  0 раз

Полного источника не было: Никогда

 
   
 
 
 

[Цитировать]

Марта / Martha / Fantoma
Страна:Германия (ФРГ)
Студия:Pro-ject Filmproduktion, Westdeutscher Rundfunk (WDR).
Жанр:Триллер, ДрамаГод выпуска:1974
Продолжительность:01:56:26Производитель:FantomaПеревод :Профессиональный (многоголосый закадровый)
Cубтитры:Английские
Оригинальная аудиодорожка:Немецкий
Премьера (мир):28.05.1974
Режиссер:Райнер Вернер Фассбиндер / Rainer Werner FassbinderВ ролях:Маргит Карстенсен, Карлхайнц Бём, Барбара Валентин, Петер Хатель, Гизела Факкельдей, Адриан Ховен, Ортруд Бегиннен, Вольфганг Шенк, Гюнтер Лампрехт, Эль Хеди Бен Салем
Описание:Марте за тридцать. Она живет со своими родителями, работает в библиотеке и думать не думает о замужестве. За героиню фильма всегда думали родители и вдруг… они внезапно умирают. Что делать? Ведь она привыкла «петь с чужого голоса». Искать им эквивалентную замену, а может быть…?
Марта знакомится с Хельмутом. «Кто это?» — спрашивает ее коллега по работе. «Это мужчина, за которого я выйду замуж», — отвечает Марта. После свадьбы Хельмут и Марта отправляются в свадебное путешествие, и, вернувшись, поселяются в новом доме. Марта любит Хельмута, сильного и независимого мужчину. Хельмут пытается изменить Марту, навязывая ей свои представления о жизни и семейных отношениях. Постепенно любовь Марты сменяется страхом, который со временем становится все сильнее…

Доп. информация:Исходник найден в сети.Профессиональный (многоголосый, закадровый)взят из раздачи Vova_Yuma-.Реавторинг Нордер.Огромное Спасибо Всем, без чьей помощи этот релиз не состоялся бы!Сценарий:Райнер Вернер Фассбиндер, Корнелл ВулричПродюсер:Петер МертесхаймерОператор:Михаэль БалльхаусХудожник:Курт Рааб, Лотар Шульц, Gisela RockenМонтаж:Лисгрет Шмитт-Клинк

Это интересно

Фасбиндер, Райнер Вернер-https://ru.wikipedia.org/wiki/Фасбиндер,_Райнер_Вернер
Фильм-https://de.wikipedia.org/wiki/Martha_(1974)

Награды и номинации

Рецензия

Софт

PGCDemux (извлечение).
BeSweet, Sony Vegas 9 (звук).
DVD-lab PRO 2.
MuxMan (сборка). DvdReMakePro (финал).

Бонусы:(Без перевода)

--New digital transfer in the original aspect ratio of 1.33:1.
--Fassbinder in Hollywood: A feature-length documentary featuring new interviews with many of Fassbinder's collaborators, including Hanna Schygulla, Ulli Lommel, cinematographer Michael Ballhaus, and director Wim Wenders.
--Liner Notes by Jonathan Rosebaum.
Меню:Английский, анимированное, озвученное.Сэмпл:https://www.sendspace.com/file/v6jel4
Тип релиза:DVD9 (Custom)
Контейнер:DVD-Video
Видео:NTSC 4:3 (720x480) VBR, 6316 Кбит/сек, 23,976 кадра/сек
Аудио 1:Русский:AC3, 2 ch, 48.0 KHz, 192 Кбит/сек / Профессиональный(многоголосый, закадровый)Аудио 2:Немецкий:AC3, 2 ch, 48.0 KHz, 192 Кбит/сек / Оригинал
Формат субтитров:prerendered (DVD/IDX+SUB)

Dvd Info

Title: Martha DVD-9_Custom
Size: 7.95 Gb ( 8 331 102,00 KBytes ) - DVD-9
Enabled regions: 1, 2, 3, 4, 5, 6, 7, 8
VTS_01 :
Play Length: 00:00:00
Video: NTSC 4:3 (720x480) VBR
VTS_02 :
Play Length: 00:00:00
Video: NTSC 16:9 (720x480) VBR, Auto Pan&Scan
Audio:
English (Dolby AC3, 2 ch)
VTS_03 :
Play Length: 01:56:26
Video: NTSC 4:3 (720x480) VBR
Audio:
Russian, AC3, 2/0 (L,R) ch, 192 kbps, Delay 0 mSec
Deutsch, AC3, 2/0 (L,R) ch, 192 kbps, Delay 0 mSec
Subtitles:
English
VTS_04 :
Play Length: 00:57:02
Video: NTSC 4:3 (720x480) VBR
Audio:
Deutsch, AC3, 2/0 (L,R) ch, 192 kbps, Delay 0 mSec
Subtitles:
English
VTS_05 :
Play Length: 00:00:00
Video: NTSC 4:3 (720x480) VBR

Mediainfo

Общее
Полное имя: F:\Martha DVD-9_Custom\VIDEO_TS\VTS_03_1.VOB
Формат : MPEG-PS
Размер файла : 1024 Мбайт
Продолжительность : 20 м.
Режим общего битрейта : Переменный
Общий поток : 6836 Кбит/сек
Видео
Идентификатор : 224 (0xE0)
Формат : MPEG Video
Версия формата : Version 2
Профиль формата : Main@Main
Параметр BVOP формата : Да
Параметр матрицы формата : Выборочная
Параметр GOP формата : Variable
Продолжительность : 20 м.
Вид битрейта : Переменный
Битрейт : 6316 Кбит/сек
Максимальный битрейт : 9800 Кбит/сек
Ширина : 720 пикселей
Высота : 480 пикселей
Соотношение сторон : 4:3
Частота кадров : 23,976 кадра/сек
Стандарт вещания : Component
Цветовое пространство : YUV
Субдискретизация насыщенности : 4:2:0
Битовая глубина : 8 бит
Тип развёртки : Прогрессивная
Порядок развёртки : 2:3 Pulldown
Метод сжатия : С потерями
Бит/(Пиксели*Кадры) : 0.762
Временной код первого кадра : 00:59:58;00
Оригинал временного кода : Group of pictures header
Размер потока : 946 Мбайт (92%)
Основные цвета : BT.601 NTSC
Характеристики трансфера : BT.601
Коэффициенты матрицы : BT.601
Аудио #1
Идентификатор : 189 (0xBD)-128 (0x80)
Формат : AC-3
Формат/Информация : Audio Coding 3
Расширение режима : CM (complete main)
Параметр Endianness формата : Big
Режим смешивания : DVD-Video
Продолжительность : 20 м.
Вид битрейта : Постоянный
Битрейт : 192 Кбит/сек
Каналы : 2 канала
Расположение каналов : Front: L R
Частота : 48,0 КГц
Метод сжатия : С потерями
Размер потока : 28,8 Мбайт (3%)
Аудио #2
Идентификатор : 189 (0xBD)-129 (0x81)
Формат : AC-3
Формат/Информация : Audio Coding 3
Расширение режима : CM (complete main)
Параметр Endianness формата : Big
Режим смешивания : DVD-Video
Продолжительность : 20 м.
Вид битрейта : Постоянный
Битрейт : 192 Кбит/сек
Каналы : 2 канала
Расположение каналов : Front: L R
Частота : 48,0 КГц
Метод сжатия : С потерями
Размер потока : 28,8 Мбайт (3%)
Текст
Идентификатор : 189 (0xBD)-32 (0x20)
Формат : RLE
Формат/Информация : Run-length encoding
Режим смешивания : DVD-Video

Скриншоты меню


Скриншоты

Скриншоты доп. материалов


Полиграфия


[teatrix.ru].t7096.torrent 
Торрент: Зарегистрирован [ 2015-10-11 11:22 ] · 74F9578B1B6818B4A70BAF44458C726F69B5AB2A

Скачать .torrent

Скачать

42 KB

Статус: проверено
Скачан: 0 раз
Размер: 7.95 GB
terms.php



Быстрый ответ

Имя:

      
Для отправки сообщений необходимо включить JavaScript
Показать сообщения:    

Текущее время: 06-Дек 15:14

Часовой пояс: UTC + 3


Вы можете начинать темы
Вы можете отвечать на сообщения
Вы не можете редактировать свои сообщения
Вы не можете удалять свои сообщения
Вы не можете голосовать в опросах
Вы не можете прикреплять файлы к сообщениям
Вы можете скачивать файлы