Третье поколение / Die Dritte Generation / The Third Generation (Райнер Вернер Фассбиндер / Rainer Werner Fassbinder) [1979, Германия (ФРГ), Комедия, Криминал, DVD9 (Custom)] MVO (Кармен Видео) + Sub Eng + Original Ger / Infinity


Статистика раздачи [Обновить пиров]
Размер:  5.3 GB   |    Зарегистрирован:  1 год 1 месяц   |    Скачан:  0 раз

Полного источника не было: Никогда

 
   
 
 
 

[Цитировать]

Третье поколение / Die Dritte Generation / The Third Generation / Infinity Arthouse
Страна:Германия (ФРГ)
Студия:Filmverlag der Autoren, Pro-ject Filmproduktion, Tango Film.
Жанр:Комедия, КриминалГод выпуска:1979
Продолжительность:01:44:24Производитель:Infinity ArthouseПеревод :Профессиональный (многоголосый закадровый) Кармен Видео
Cубтитры:Английские, Русские
Оригинальная аудиодорожка:Немецкий
Премьера (мир):13.05.1979
Режиссер:Райнер Вернер Фассбиндер / Rainer Werner FassbinderВ ролях:Харри Баэр, Харк Бом, Маргит Карстенсен, Эдди Константин, Юрген Дрэгер, Рауль Хименес, Клаус Хольм, Гюнтер Кауфманн, Удо Кир, Бюль Ожье
Описание:Отражающая бытие некой террористической организации, эта «комедия в шести частях об общественных играх, полная напряжения, возбуждения и логики, жестокости и безумия…» посвящена знаменитой Фракции Красной Армии (RAF), наводившей ужас на Германию своими кровавыми акциями, не щадившими даже случайных граждан.
Пик активности RAF относится к первой половине 70-х, когда группой руководили Андреас Баадер и Ульрика Майнхоф. Несмотря на то, что имена и обстоятельства в фильме изменены, Фассбиндеру удается глубоко погрузиться в сложные взаимоотношения внутри организации, показать сплетенность личных и общественных мотиваций ее членов, а заодно увидеть и внутреннюю фашизоидность окружения — законопослушных обывателей.
Объявления же на стенах туалетов (используемые как эпиграфы между частями) символизируют всеобщую нехватку сексуального удовлетворения — без которого, по Фассбиндеру, всякая революция обречена на провал.

Доп. информация:Исходник найден в сети.Профессиональный (многоголосый, закадровый)-Кармен Видео и русские субтитрыРеавторинг Нордер.Огромное Спасибо Всем, без чьей помощи этот релиз не состоялся бы!Сценарий:Райнер Вернер ФассбиндерПродюсер:Райнер Вернер Фассбиндер, Харри БаэрОператор:Райнер Вернер ФассбиндерКомпозитор:Пер РабенХудожник:Рауль Хименес, Фолькер ШпенглерМонтаж:Юлиана Лоренц

Награды и номинации

Рецензия

Софт

PGCDemux (извлечение).
BeSweet, Sony Vegas 9 (звук).
DVD-lab PRO 2, Subtitle Workshop (субтитры).
MuxMan (сборка). DvdReMakePro (финал).

Бонусы:(Без перевода)

Меню:Английский, анимированное, озвученное.Сэмпл:https://www.sendspace.com/file/0qrcyx
Тип релиза:DVD9 (Custom)
Контейнер:DVD-Video
Видео:NTSC 4:3 (720x480) VBR, 5000 Кбит/сек, 29,970 кадров/сек
Аудио 1:Русский:AC3, 2 ch, 48.0 KHz, 192 Кбит/сек / Профессиональный(многоголосый, закадровый) Кармен ВидеоАудио 2:Немецкий:AC3, 2 ch, 48.0 KHz, 224 Кбит/сек / Оригинал
Формат субтитров:prerendered (DVD/IDX+SUB)

Dvd Info

Title: Die Dritte Generation DVD-9_Custom
Size: 5.30 Gb ( 5 559 014,00 KBytes ) - DVD-9
Enabled regions: 1, 2, 3, 4, 5, 6, 7, 8
VTS_01 :
Play Length: 00:00:28
Video: NTSC 4:3 (720x480) VBR
Audio:
English (Dolby AC3, 2 ch)
Subtitles:
English
VTS_02 :
Play Length: 01:44:24+{01:44:24}
Video: NTSC 4:3 (720x480) VBR
Audio:
Russian, AC3, 2/0 (L,R) ch, 192 kbps, Delay 0 mSec
Deutsch, AC3, 2/0 (L,R) ch, 224 kbps, Delay 0 mSec
Subtitles:
English
Russian
VTS_03 :
Play Length: 00:03:01
Video: NTSC 4:3 (720x480) VBR
Audio:
Deutsch, AC3, 2/0 (L,R) ch, 224 kbps, Delay 0 mSec
Subtitles:
English
VTS_04 :
Play Length: 00:02:55
Video: NTSC 4:3 (720x480) VBR
Audio:
English, AC3, 2/0 (L,R) ch, 224 kbps, Delay 0 mSec
Subtitles:
English
VTS_05 :
Play Length: 00:03:37
Video: NTSC 16:9 (720x480) VBR, Auto Letterboxed
Audio:
English, AC3, 2/0 (L,R) ch, 224 kbps, Delay 0 mSec
Subtitles:
English
VTS_06 :
Play Length: 00:22:02
Video: NTSC 4:3 (720x480) VBR
Audio:
Deutsch, AC3, 2/0 (L,R) ch, 224 kbps, Delay 0 mSec
Subtitles:
English
VTS_07 :
Play Length: 00:01:30
Video: NTSC 16:9 (720x480) VBR, Auto Letterboxed
Subtitles:
English

Mediainfo

Общее
Полное имя: F:\Die Dritte Generation DVD-9_Custom\VIDEO_TS\VTS_02_1.VOB
Формат : MPEG-PS
Размер файла : 1024 Мбайт
Продолжительность : 25 м.
Режим общего битрейта : Переменный
Общий поток : 5545 Кбит/сек
Видео
Идентификатор : 224 (0xE0)
Формат : MPEG Video
Версия формата : Version 2
Профиль формата : Main@Main
Параметр BVOP формата : Да
Параметр матрицы формата : Выборочная
Параметр GOP формата : M=3, N=15
Структура изображения : Frame
Продолжительность : 25 м.
Вид битрейта : Переменный
Битрейт : 5000 Кбит/сек
Ширина : 720 пикселей
Высота : 480 пикселей
Соотношение сторон : 4:3
Частота кадров : 29,970 кадров/сек
Стандарт вещания : NTSC
Цветовое пространство : YUV
Субдискретизация насыщенности : 4:2:0
Битовая глубина : 8 бит
Тип развёртки : Чересстрочная
Порядок развёртки : Верхнее поле первое
Метод сжатия : С потерями
Бит/(Пиксели*Кадры) : 0.483
Временной код первого кадра : 10:00:00;00
Оригинал временного кода : Group of pictures header
GOP, открыто/закрыто : Закрыто
Размер потока : 927 Мбайт (91%)
Аудио #1
Идентификатор : 189 (0xBD)-128 (0x80)
Формат : AC-3
Формат/Информация : Audio Coding 3
Расширение режима : CM (complete main)
Параметр Endianness формата : Big
Режим смешивания : DVD-Video
Продолжительность : 25 м.
Вид битрейта : Постоянный
Битрейт : 192 Кбит/сек
Каналы : 2 канала
Расположение каналов : Front: L R
Частота : 48,0 КГц
Метод сжатия : С потерями
Размер потока : 35,4 Мбайт (3%)
Аудио #2
Идентификатор : 189 (0xBD)-129 (0x81)
Формат : AC-3
Формат/Информация : Audio Coding 3
Расширение режима : CM (complete main)
Параметр Endianness формата : Big
Режим смешивания : DVD-Video
Продолжительность : 25 м.
Вид битрейта : Постоянный
Битрейт : 224 Кбит/сек
Каналы : 2 канала
Расположение каналов : Front: L R
Частота : 48,0 КГц
Метод сжатия : С потерями
Размер потока : 41,4 Мбайт (4%)
Текст #1
Идентификатор : 189 (0xBD)-32 (0x20)
Формат : RLE
Формат/Информация : Run-length encoding
Режим смешивания : DVD-Video
Продолжительность : 25 м.
Задержка видео : 6 с. 606 мс.
Текст #2
Идентификатор : 189 (0xBD)-33 (0x21)
Формат : RLE
Формат/Информация : Run-length encoding
Режим смешивания : DVD-Video
Продолжительность : 25 м.
Задержка видео : 4 с. 271 мс.

Скриншоты меню

Скриншоты

Скриншоты доп. материалов



[teatrix.ru].t7099.torrent 
Торрент: Зарегистрирован [ 2015-10-11 11:22 ] · F960D9CF7E4E988AA289194F9FF1E81B2E32AE5D

Скачать .torrent

Скачать

29 KB

Статус: проверено
Скачан: 0 раз
Размер: 5.3 GB
terms.php



Быстрый ответ

Имя:

      
Для отправки сообщений необходимо включить JavaScript
Показать сообщения:    

Текущее время: 06-Дек 11:14

Часовой пояс: UTC + 3


Вы можете начинать темы
Вы можете отвечать на сообщения
Вы не можете редактировать свои сообщения
Вы не можете удалять свои сообщения
Вы не можете голосовать в опросах
Вы не можете прикреплять файлы к сообщениям
Вы можете скачивать файлы