Горькие слезы Петры Фон Кант / Die bitteren Tranen der Petra von Kant (Райнер Вернер Фассбиндер / Rainer Werner Fassbinder) [1972, Германия (ФРГ), Драма, DVD9 (Custom)+DVD9] MVO (SomeWax) + Sub Eng, Rus + Original Ger / Criterion Collection#740


Статистика раздачи [Обновить пиров]
Размер:  15.08 GB   |    Зарегистрирован:  1 год 1 месяц   |    Скачан:  0 раз

Полного источника не было: Никогда

 
   
 
 
 

[Цитировать]

Горькие слезы Петры Фон Кант / Die bitteren Tranen der Petra von Kant / The Bitter Tears of Petra Von Kant / Criterion Collection#740«Sex is the ultimate weapon»
Страна:Германия (ФРГ)
Студия:Filmverlag der Autoren, Tango Film.
Жанр:Драма
Год выпуска:1972
Продолжительность:02:04:36
Производитель:The Criterion Collection #740
Перевод :Профессиональный (многоголосый закадровый) SomeWax
Cубтитры:Английские, Русские
Оригинальная аудиодорожка:Немецкий
Премьера (мир):25.06.1972
Режиссер:Райнер Вернер Фассбиндер / Rainer Werner FassbinderВ ролях:Маргит Карстенсен--Петра фон Кант
Ханна Шигула--Карин Тимм
Катрин Шааке--Сидони фон Гразенаб
Ева Маттес--Габриэль фон Кант
Gisela Fackeldey--Валери фон Кант
Ирм Херманн--Марлен
Описание: Известная дизайнер одежды Петра Фон Кант живет в мире славы, денег и успеха. Она добилась всего, чего хотела, ей не нужны никакие мужчины и их «подачки», Петра абсолютно самодостаточна и вполне довольна своей жизнью. Но все меняется, когда однажды в ее роскошный дом приходит юная модель Карин. Внезапно искушенная жизнью Петра проникается глубокой симпатией к девушке и понимает, что ей нужна взаимность. Она начинает добиваться расположения своей пассии, жестоко ревнуя ее к внешнему миру за пределами своего дома. Но у Карин совсем другие планы: она очень заинтересована в помощи и покровительстве знаменитой богатой Петры и все ее поведение пронизано фальшью.

Доп. информация:Исходник найден в сети.Профессиональный (многоголосый закадровый) SomeWax и русские субтитрывзяты из раздачи -http://teatrix.ru/viewtopic.php?t=6750.Реавторинг Нордер.
Огромное Спасибо Всем, без чьей помощи этот релиз не состоялся бы!Продюсер:Райнер Вернер Фассбиндер, Михаэль ФенглерСценарий:Райнер Вернер ФассбиндерОператор:Михаэль БалльхаусХудожник:Курт Рааб, Майя ЛемкеМонтаж:Теа Эймеш
Фасбиндер, Райнер Вернер-https://ru.wikipedia.org/wiki/Фасбиндер,_Райнер_Вернер Фильм-https://ru.wikipedia.org/wiki/Горькие_слёзы_Петры_фон_КантНаграды и номинации">

Это интересноФасбиндер, Райнер Вернер-https://ru.wikipedia.org/wiki/Фасбиндер,_Райнер_Вернер Фильм-https://ru.wikipedia.org/wiki/Горькие_слёзы_Петры_фон_КантНаграды и номинации



Рецензия

Софт

PGCDemux (извлечение).
BeSweet, Sony Vegas 9 (звук).
DVD-lab PRO 2, Subtitle Workshop (субтитры).
MuxMan (сборка). DvdReMakePro (финал).

Бонусы:(Без перевода)

-New interviews with Ballhaus and actors Margit Carstensen, Eva Mattes, Katrin Schaake, and Hanna Schygulla
-New interview with film scholar Jane Shattuc
-Role Play: Women on Fassbinder, a 1992 German television documentary by Thomas Honickel featuring interviews with Carstensen, Schygulla, and actors Irm Hermann and Rosel Zech
-New English subtitle translation
PLUS: An essay by critic Peter Matthews
Меню:Английский, статичное, озвученное.Сэмпл Диск 1:http://multi-up.com/1058854Сэмпл Диск 2:http://multi-up.com/1058317Тип релиза:DVDх9(Custom)+DVDх9
Контейнер:DVD-Video
Видео:NTSC 4:3 (720x480) VBR, 7763 Кбит/сек, 23,976 кадра/сек
Аудио 1:Русский:AC3, 2 ch, 48.0 KHz, 224 Кбит/сек / Профессиональный (многоголосый закадровый) SomeWaxАудио 2:Немецкий:AC3, 1 ch, 48.0 KHz, 384 Кбит/сек / ОригиналФормат субтитров: prerendered (DVD/IDX+SUB)

Dvd Info- Диск 1

Title: Диск 1
Size: 7.81 Gb ( 8 192 712,00 KBytes ) - DVD-9
Enabled regions: 1, 2, 3, 4, 5, 6, 7, 8
VTS_01 :
Play Length: 00:00:00
Video: NTSC 4:3 (720x480) VBR
VTS_02 :
Play Length: 02:04:36
Video: NTSC 4:3 (720x480) VBR
Audio:
Russian, AC3, 2/0 (L,R) ch, 224 kbps, Delay 0 mSec
Deutsch, AC3, 1/0 (C) ch, 384 kbps, Delay 0 mSec
Subtitles:
English
Russian
VTS_03 :
Play Length: 00:00:20
Video: NTSC 4:3 (720x480) VBR
VTS_04 :
Play Length: 00:00:00
Video: NTSC 4:3 (720x480) VBR

Dvd Info- Диск 2

Title: Диск 2
Size: 7.26 Gb ( 7 616 064,00 KBytes ) - DVD-9
Enabled regions: 1, 2, 3, 4, 5, 6, 7, 8
VTS_01 :
Play Length: 00:00:00
Video: NTSC 4:3 (720x480) VBR
VTS_02 :
Play Length: 00:23:07
Video: NTSC 16:9 (720x480) VBR, Auto Letterboxed
Audio:
English, AC3, 1/0 (C) ch, 192 kbps, Delay 0 mSec
Subtitles:
English
English
VTS_03 :
Play Length: 00:30:14
Video: NTSC 16:9 (720x480) VBR, Auto Letterboxed
Audio:
Deutsch, AC3, 1/0 (C) ch, 192 kbps, Delay 0 mSec
Subtitles:
English
VTS_04 :
Play Length: 00:07:03
Video: NTSC 16:9 (720x480) VBR, Auto Letterboxed
Audio:
English, AC3, 1/0 (C) ch, 192 kbps, Delay 0 mSec
VTS_05 :
Play Length: 00:58:40
Video: NTSC 4:3 (720x480) VBR
Audio:
English, AC3, 1/0 (C) ch, 192 kbps, Delay 0 mSec
Subtitles:
English
VTS_06 :
Play Length: 00:00:00
Video: NTSC 4:3 (720x480) VBR

MediaInfo- Диск 1

Общее
Полное имя: F:\The Bitter Tears of Petra Von Kant DVD-9_Custom+DVD-9_Criterion#740\Диск 1\VIDEO_TS\VTS_02_1.VOB
Формат : MPEG-PS
Размер файла : 1024 Мбайт
Продолжительность : 16 м.
Режим общего битрейта : Переменный
Общий поток : 8541 Кбит/сек
Видео
Идентификатор : 224 (0xE0)
Формат : MPEG Video
Версия формата : Version 2
Профиль формата : Main@Main
Параметр BVOP формата : Да
Параметр матрицы формата : Выборочная
Параметр GOP формата : Variable
Продолжительность : 16 м.
Вид битрейта : Переменный
Битрейт : 7763 Кбит/сек
Максимальный битрейт : 9800 Кбит/сек
Ширина : 720 пикселей
Высота : 480 пикселей
Соотношение сторон : 4:3
Частота кадров : 23,976 кадра/сек
Цветовое пространство : YUV
Субдискретизация насыщенности : 4:2:0
Битовая глубина : 8 бит
Тип развёртки : Прогрессивная
Порядок развёртки : 2:3 Pulldown
Метод сжатия : С потерями
Бит/(Пиксели*Кадры) : 0.937
Временной код первого кадра : 00:59:40:00
Оригинал временного кода : Group of pictures header
Размер потока : 931 Мбайт (91%)
Аудио #1
Идентификатор : 189 (0xBD)-128 (0x80)
Формат : AC-3
Формат/Информация : Audio Coding 3
Расширение режима : CM (complete main)
Параметр Endianness формата : Big
Режим смешивания : DVD-Video
Продолжительность : 16 м.
Вид битрейта : Постоянный
Битрейт : 224 Кбит/сек
Каналы : 2 канала
Расположение каналов : Front: L R
Частота : 48,0 КГц
Метод сжатия : С потерями
Размер потока : 26,9 Мбайт (3%)
Аудио #2
Идентификатор : 189 (0xBD)-129 (0x81)
Формат : AC-3
Формат/Информация : Audio Coding 3
Расширение режима : CM (complete main)
Параметр Endianness формата : Big
Режим смешивания : DVD-Video
Продолжительность : 16 м.
Вид битрейта : Постоянный
Битрейт : 384 Кбит/сек
Каналы : 1 канал
Расположение каналов : Front: C
Частота : 48,0 КГц
Метод сжатия : С потерями
Размер потока : 46,0 Мбайт (4%)
Текст #1
Идентификатор : 189 (0xBD)-32 (0x20)
Формат : RLE
Формат/Информация : Run-length encoding
Режим смешивания : DVD-Video
Текст #2
Идентификатор : 189 (0xBD)-33 (0x21)
Формат : RLE
Формат/Информация : Run-length encoding
Режим смешивания : DVD-Video

MediaInfo- Диск 2

Общее
Полное имя: F:\The Bitter Tears of Petra Von Kant DVD-9_Custom+DVD-9_Criterion#740\Диск 2\VIDEO_TS\VTS_03_1.VOB
Формат : MPEG-PS
Размер файла : 1024 Мбайт
Продолжительность : 15 м.
Режим общего битрейта : Переменный
Общий поток : 9016 Кбит/сек
Видео
Идентификатор : 224 (0xE0)
Формат : MPEG Video
Версия формата : Version 2
Профиль формата : Main@Main
Параметр BVOP формата : Да
Параметр матрицы формата : Выборочная
Параметр GOP формата : Variable
Продолжительность : 15 м.
Вид битрейта : Переменный
Битрейт : 8644 Кбит/сек
Максимальный битрейт : 9800 Кбит/сек
Ширина : 720 пикселей
Высота : 480 пикселей
Соотношение сторон : 16:9
Частота кадров : 23,976 кадра/сек
Цветовое пространство : YUV
Субдискретизация насыщенности : 4:2:0
Битовая глубина : 8 бит
Тип развёртки : Прогрессивная
Порядок развёртки : 2:3 Pulldown
Метод сжатия : С потерями
Бит/(Пиксели*Кадры) : 1.043
Временной код первого кадра : 01:00:00:00
Оригинал временного кода : Group of pictures header
GOP, открыто/закрыто : Открыто
GOP, открыто/закрыто на первом кадре : Закрыто
Размер потока : 982 Мбайт (96%)
Аудио
Идентификатор : 189 (0xBD)-128 (0x80)
Формат : AC-3
Формат/Информация : Audio Coding 3
Расширение режима : CM (complete main)
Параметр Endianness формата : Big
Режим смешивания : DVD-Video
Продолжительность : 15 м.
Вид битрейта : Постоянный
Битрейт : 192 Кбит/сек
Каналы : 1 канал
Расположение каналов : Front: C
Частота : 48,0 КГц
Метод сжатия : С потерями
Размер потока : 21,8 Мбайт (2%)
Текст #1
Идентификатор : 189 (0xBD)-32 (0x20)
Формат : RLE
Формат/Информация : Run-length encoding
Режим смешивания : DVD-Video
Продолжительность : 15 м.
Задержка видео : 2 с. 35 мс.
Текст #2
Идентификатор : 189 (0xBD)-33 (0x21)
Формат : RLE
Формат/Информация : Run-length encoding
Режим смешивания : DVD-Video
Продолжительность : 15 м.
Задержка видео : 2 с. 35 мс.

Скриншоты меню-Диск 1

Скриншоты фильма-Диск 1

Скриншоты меню-Диск 2


Скриншоты доп. материалов-Диск 2



[teatrix.ru].t7100.torrent 
Торрент: Зарегистрирован [ 2015-10-11 11:22 ] · 2207F8F57957672D7098BC35D8241F2DC8E4BA33

Скачать .torrent

Скачать

79 KB

Статус: проверено
Скачан: 0 раз
Размер: 15.08 GB
terms.php



Быстрый ответ

Имя:

      
Для отправки сообщений необходимо включить JavaScript
Показать сообщения:    

Текущее время: 10-Дек 08:06

Часовой пояс: UTC + 3


Вы можете начинать темы
Вы можете отвечать на сообщения
Вы не можете редактировать свои сообщения
Вы не можете удалять свои сообщения
Вы не можете голосовать в опросах
Вы не можете прикреплять файлы к сообщениям
Вы можете скачивать файлы