Война окончена / La guerre est finie / Kriget ar slut / The War Is Over (Ален Рене / Alain Resnais) [1966, Франция, Швеция, Драма, Военный, DVD9 (Custom)] MVO (5-й канал, СПБ) + VO + Sub Eng + Original Fre / mk2


Статистика раздачи [Обновить пиров]
Размер:  7.86 GB   |    Зарегистрирован:  1 год 1 месяц   |    Скачан:  1 раз

Полного источника не было: 1 месяц 14 дней

 
   
 
 
 

[Цитировать]

Война окончена / La guerre est finie / Kriget ar slut / The War Is Over / mk2
Страна:Франция, Швеция
Студия:Europa Film, Sofracima.
Жанр:Драма, ВоенныйГод выпуска:1966
Продолжительность:01:56:10Перевод 1:Профессиональный (многоголосый закадровый) 5-й канал, СПБПеревод 2:Одноголосый закадровый
Cубтитры:Английские
Оригинальная аудиодорожка:Французский
Премьера (мир):11.05.1966
Режиссер:Ален Рене / Alain ResnaisВ ролях:Ив Монтан, Ингрид Тулин, Женевьев Бюжо, Жан Дасте, Доминик Розан, Жан-Франсуа Реми, Мари Мерже, Мишель Пикколи, Анук Фержак, Ролан Моно
Описание:Диего, один из руководителей испанской Коммунистической партии, возвращается в Париж из Мадрида. Его почти арестовывают на границе, но потом пропускают, благодаря Надин, дочери человека, паспортом которого Диего пользуется. После прибытия в Париж, он начинает искать Хуана, одного из своих товарищей, чтобы отговорить от возвращения в Мадрид, где его может арестовать полиция Франко…
Доп. информация:Исходник и Одноголосый закадровый найдены в сети.Профессиональный (многоголосый, закадровый)-5-й канал, СПБ взят из раздачи
TDiTP_-http://rutracker.org/forum/viewtopic.php?t=2765711.Реавторинг Нордер.Огромное Спасибо Всем, без чьей помощи этот релиз не состоялся бы!Сценарий:Хорхе СемпрунПродюсер:Анатоль Доман, Жизель Ребильон, Катрин ВинтерОператор:Саша ВьерниКомпозитор:Джованни ФускоХудожник:Жак Солнье, Madeleine Lafon, Мари МартинМонтаж:Эрик Плюе, Зива Постец

Награды и номинации


Рецензия

Софт

PGCDemux (извлечение).
BeSweet, Sony Vegas 9 (звук).
MuxMan (сборка). DvdReMakePro (финал).

Бонусы:(Без перевода)

Меню:Французский, анимированное, озвученное.Сэмпл:http://multi-up.com/1058160
Тип релиза:DVD9 (Custom) - DVDRip
Контейнер:DVD-Video
Видео:PAL 16:9 (720x576) VBR, Auto Letterboxed, 5355 Кбит/сек, 25,000 кадров/сек
Аудио 1:Русский:AC3, 2 ch, 48.0 KHz, 192 Кбит/сек / Профессиональный(многоголосый, закадровый)5-й канал, СПБАудио 2:Французский:AC3, 2 ch, 48.0 KHz, 192 Кбит/сек
Аудио 3:Французский:AC3, 2 ch, 48.0 KHz, 192 Кбит/секАудио 4:AC3, 2 ch, 48.0 KHz, 192 Кбит/сек / Одноголосый (закадровый)Формат субтитров:prerendered (DVD/IDX+SUB) -

Dvd Info

Title: La guerre est finie DVD-9_Custom
Size: 7.86 Gb ( 8 239 286,00 KBytes ) - DVD-9
Enabled regions: 1, 2, 3, 4, 5, 6, 7, 8
VTS_01 :
Play Length: 01:56:10
Video: PAL 16:9 (720x576) VBR, Auto Letterboxed
Audio:
Russian, AC3, 2/0 (L,R) ch, 192 kbps, Delay 0 mSec
Francais, AC3, 2/0 (L,R) ch, 192 kbps, Delay 0 mSec
Francais, AC3, 2/0 (L,R) ch, 192 kbps, Delay 0 mSec
Russian, AC3, 2/0 (L,R) ch, 192 kbps, Delay 0 mSec
Subtitles:
English
VTS_02 :
Play Length: 00:04:54+00:03:03+00:02:58+00:01:42+00:01:06+00:01:53+00:01:41
Video: PAL 16:9 (720x576) VBR, Auto Letterboxed
Audio:
Francais, AC3, 2/0 (L,R) ch, 192 kbps, Delay 0 mSec
VTS_03 :
Play Length: 00:32:56
Video: PAL 4:3 (720x576) VBR, Letterboxed
Audio:
Francais, AC3, 2/0 (L,R) ch, 192 kbps, Delay 0 mSec
VTS_04 :
Play Length: 00:00:05+00:19:32
Video: PAL 16:9 (720x576) VBR, Auto Pan&Scan
Audio:
Francais, AC3, 2/0 (L,R) ch, 192 kbps, Delay 0 mSec
Subtitles:
Not specified

Mediainfo

Общее
Полное имя: F:\La guerre est finie DVD-9_Custom\VIDEO_TS\VTS_01_2.VOB
Формат : MPEG-PS
Размер файла : 1024 Мбайт
Продолжительность : 22 м.
Режим общего битрейта : Переменный
Общий поток : 6247 Кбит/сек
Видео
Идентификатор : 224 (0xE0)
Формат : MPEG Video
Версия формата : Version 2
Профиль формата : Main@Main
Параметр BVOP формата : Да
Параметр матрицы формата : По умолчанию
Параметр GOP формата : M=3, N=4
Структура изображения : Frame
Продолжительность : 22 м.
Вид битрейта : Переменный
Битрейт : 5355 Кбит/сек
Максимальный битрейт : 8000 Кбит/сек
Ширина : 720 пикселей
Высота : 576 пикселей
Соотношение сторон : 2,40:1
Частота кадров : 25,000 кадров/сек
Стандарт вещания : PAL
Цветовое пространство : YUV
Субдискретизация насыщенности : 4:2:0
Битовая глубина : 8 бит
Тип развёртки : Чересстрочная
Порядок развёртки : Верхнее поле первое
Метод сжатия : С потерями
Бит/(Пиксели*Кадры) : 0.516
Временной код первого кадра : 10:20:55:07
Оригинал временного кода : Group of pictures header
GOP, открыто/закрыто : Открыто
Размер потока : 878 Мбайт (86%)
Основные цвета : BT.601 PAL
Характеристики трансфера : BT.470 System B, BT.470 System G
Коэффициенты матрицы : BT.601
Аудио #1
Идентификатор : 189 (0xBD)-128 (0x80)
Формат : AC-3
Формат/Информация : Audio Coding 3
Расширение режима : CM (complete main)
Параметр Endianness формата : Big
Режим смешивания : DVD-Video
Продолжительность : 22 м.
Вид битрейта : Постоянный
Битрейт : 192 Кбит/сек
Каналы : 2 канала
Расположение каналов : Front: L R
Частота : 48,0 КГц
Метод сжатия : С потерями
Задержка видео : -384 мс.
Размер потока : 31,5 Мбайт (3%)
Аудио #2
Идентификатор : 189 (0xBD)-129 (0x81)
Формат : AC-3
Формат/Информация : Audio Coding 3
Расширение режима : CM (complete main)
Параметр Endianness формата : Big
Режим смешивания : DVD-Video
Продолжительность : 22 м.
Вид битрейта : Постоянный
Битрейт : 192 Кбит/сек
Каналы : 2 канала
Расположение каналов : Front: L R
Частота : 48,0 КГц
Метод сжатия : С потерями
Задержка видео : -384 мс.
Размер потока : 31,5 Мбайт (3%)
Аудио #3
Идентификатор : 189 (0xBD)-130 (0x82)
Формат : AC-3
Формат/Информация : Audio Coding 3
Расширение режима : CM (complete main)
Параметр Endianness формата : Big
Режим смешивания : DVD-Video
Продолжительность : 22 м.
Вид битрейта : Постоянный
Битрейт : 192 Кбит/сек
Каналы : 2 канала
Расположение каналов : Front: L R
Частота : 48,0 КГц
Метод сжатия : С потерями
Задержка видео : -384 мс.
Размер потока : 31,5 Мбайт (3%)
Аудио #4
Идентификатор : 189 (0xBD)-131 (0x83)
Формат : AC-3
Формат/Информация : Audio Coding 3
Расширение режима : CM (complete main)
Параметр Endianness формата : Big
Режим смешивания : DVD-Video
Продолжительность : 22 м.
Вид битрейта : Постоянный
Битрейт : 192 Кбит/сек
Каналы : 2 канала
Расположение каналов : Front: L R
Частота : 48,0 КГц
Метод сжатия : С потерями
Задержка видео : -384 мс.
Размер потока : 31,5 Мбайт (3%)
Текст
Идентификатор : 189 (0xBD)-32 (0x20)
Формат : RLE
Формат/Информация : Run-length encoding
Режим смешивания : DVD-Video
Продолжительность : 22 м.
Задержка видео : 360 мс.

Скриншоты меню

Скриншоты

Скриншоты доп. материалов



[teatrix.ru].t7105.torrent 
Торрент: Зарегистрирован [ 2015-10-11 11:22 ] · 488077A8C67BB4B5A2DF04AAAB312AD9CA22D7AF

Скачать .torrent

Скачать

41 KB

Статус: проверено
Скачан: 1 раз
Размер: 7.86 GB
terms.php



Быстрый ответ

Имя:

      
Для отправки сообщений необходимо включить JavaScript
Показать сообщения:    

Текущее время: 06-Дек 22:51

Часовой пояс: UTC + 3


Вы можете начинать темы
Вы можете отвечать на сообщения
Вы не можете редактировать свои сообщения
Вы не можете удалять свои сообщения
Вы не можете голосовать в опросах
Вы не можете прикреплять файлы к сообщениям
Вы можете скачивать файлы