Битва при Мохаче / Мохачская битва / A mohacsi vesz / The Battle of Mohacs (Миклош Янчо / Miklos Jancso) [2004, Венгрия, Комедия, Фантастика, DVD5 (Custom)] Sub Mag, Eng, Rus(marwcharw) + Original Mag


Статистика раздачи [Обновить пиров]
Размер:  4.2 GB   |    Зарегистрирован:  1 год 1 месяц   |    Скачан:  0 раз

Полного источника не было: Никогда

 
   
 
 
 

[Цитировать]

Битва при Мохаче / Мохачская битва / A mohacsi vesz / The Battle of Mohacs
Страна:ВенгрияЖанр:Комедия, ФантастикаГод выпуска:2004
Продолжительность:01:20:57Перевод:Субтитры marwcharwCубтитры:Венгерские, Английские, Русские
Оригинальная аудиодорожка:Венгерский
Премьера (мир):3.02.2004
Режиссер:Миклош Янчо / Miklos JancsoВ ролях:Золтан Мучи, Петер Шерер, Питер Халас, Лайош Балажович, Ката Барч, Дьюла Бодроги, Балаж Галько, Андраш Гондар, Анна Грюнвальски, Аги Грюнвальски
Описание:В 1526 году в битве при Мохаче венгерские войска потерпели сокрушительное поражение от турок. Погиб король Лайош (Людовик) II. Венгрия была разделена между Австрией и Османской империей и на четыре столетия перестала существовать как независимое государство.
В фильме Янчо два друга, Капа и Пепе, отправляются на машине времени из 21 века в 1526 год, чтобы помочь венграм выиграть битву при Мохаче и тем самым "исправить историю" – превратить современную Венгрию в могущественную державу...

Доп. информация:Исходник найден в сети.Русские субтитры- marwcharwРеавторинг Нордер.Огромное Спасибо Всем, без чьей помощи этот релиз не состоялся бы!Сценарий:Ференц Грюнвальски, Дьюла Хернади, Миклош ЯнчоПродюсер:Gabor LosoncziОператор:Ференц ГрюнвальскиХудожник:Тамаш Банович, Жужа Штенгер, Ласло МакаиМонтаж:Жужа Чакань

Софт

PGCDemux (извлечение).
DVD-lab PRO 2, Subtitle Workshop (субтитры).
MuxMan (сборка). DvdReMakePro (финал).

Бонусы:

Изначально на исходнике дополнительные материалы отсутствовали.Фрагмент из стихотворения Михая Вёрёшмарти "Призыв" приводится в переводе Н. Чуковского, начало стихотворения Шандора Петёфи "Курица моей матери" – в переводе С. Обрадовича, цитаты из "Гамлета" – в переводе М. Лозинского.
Меню:Венгерский, статичное, озвученное.Сэмпл:http://multi-up.com/1057096
Тип релиза:DVD5 (Custom)
Контейнер:DVD-Video
Видео:PAL 16:9 (720x576) VBR, Auto Letterboxed, 6897 Кбит/сек, 25,000 кадров/сек
Аудио 1:Венгерский:AC3, 2 ch, 48.0 KHz, 192 Кбит/сек / (Оригинал)Аудио 2:Венгерский:AC3, 2 ch, 48.0 KHz, 192 Кбит/сек / КомментарииФормат субтитров:prerendered (DVD/IDX+SUB)

Dvd Info

Title: A mohacsi vesz DVD-5_Custom
Size: 4.20 Gb ( 4 408 528,00 KBytes ) - DVD-5
Enabled regions: 1, 2, 3, 4, 5, 6, 7, 8
VTS_01 :
Play Length: 01:20:57
Video: PAL 16:9 (720x576) VBR, Auto Letterboxed
Audio:
Magyar, AC3, 2/0 (L,R) ch, 192 kbps, Delay 0 mSec
Magyar, AC3, 2/0 (L,R) ch, 192 kbps, Delay 0 mSec
Subtitles:
Magyar
Magyar
English
Russian
VTS_02 :
Play Length: 00:00:12
Video: PAL 16:9 (720x576) VBR, Auto Letterboxed
Subtitles:
Not specified
VTS_03 :
Play Length: 00:00:00+00:00:00
Video: PAL 4:3 (704x576) VBR
Audio:
Magyar (Dolby AC3, 2 ch)
Subtitles:
Magyar
English
VTS_04 :
Play Length: 00:00:00+00:00:00+00:00:00+00:00:00+00:00:00
Video: PAL 4:3 (720x576) VBR
Audio:
Not specified (Dolby AC3, 2 ch)
Subtitles:
Magyar
VTS_05 :
Play Length: 00:00:01
Video: PAL 16:9 (720x576) VBR, Auto Letterboxed
Audio:
Not specified (Dolby AC3, 2 ch)

Mediainfo

Общее
Полное имя: F:\A mohacsi vesz DVD-5_Custom\VIDEO_TS\VTS_01_1.VOB
Формат : MPEG-PS
Размер файла : 1024 Мбайт
Продолжительность : 19 м.
Режим общего битрейта : Переменный
Общий поток : 7429 Кбит/сек
Видео
Идентификатор : 224 (0xE0)
Формат : MPEG Video
Версия формата : Version 2
Профиль формата : Main@Main
Параметр BVOP формата : Да
Параметр матрицы формата : Выборочная
Параметр GOP формата : Variable
Продолжительность : 19 м.
Вид битрейта : Переменный
Битрейт : 6897 Кбит/сек
Максимальный битрейт : 9800 Кбит/сек
Ширина : 720 пикселей
Высота : 576 пикселей
Соотношение сторон : 16:9
Частота кадров : 25,000 кадров/сек
Стандарт вещания : PAL
Цветовое пространство : YUV
Субдискретизация насыщенности : 4:2:0
Битовая глубина : 8 бит
Тип развёртки : Прогрессивная
Порядок развёртки : Верхнее поле первое
Метод сжатия : С потерями
Бит/(Пиксели*Кадры) : 0.665
Временной код первого кадра : 00:00:00:00
Оригинал временного кода : Group of pictures header
GOP, открыто/закрыто : Открыто
GOP, открыто/закрыто на первом кадре : Закрыто
Размер потока : 951 Мбайт (93%)
Аудио #1
Идентификатор : 189 (0xBD)-128 (0x80)
Формат : AC-3
Формат/Информация : Audio Coding 3
Расширение режима : CM (complete main)
Параметр Endianness формата : Big
Режим смешивания : DVD-Video
Продолжительность : 19 м.
Вид битрейта : Постоянный
Битрейт : 192 Кбит/сек
Каналы : 2 канала
Расположение каналов : Front: L R
Частота : 48,0 КГц
Метод сжатия : С потерями
Размер потока : 26,5 Мбайт (3%)
Аудио #2
Идентификатор : 189 (0xBD)-129 (0x81)
Формат : AC-3
Формат/Информация : Audio Coding 3
Расширение режима : CM (complete main)
Параметр Endianness формата : Big
Режим смешивания : DVD-Video
Продолжительность : 19 м.
Вид битрейта : Постоянный
Битрейт : 192 Кбит/сек
Каналы : 2 канала
Расположение каналов : Front: L R
Частота : 48,0 КГц
Метод сжатия : С потерями
Размер потока : 26,5 Мбайт (3%)
Текст #1
Идентификатор : 189 (0xBD)-33 (0x21)
Формат : RLE
Формат/Информация : Run-length encoding
Режим смешивания : DVD-Video
Текст #2
Идентификатор : 189 (0xBD)-34 (0x22)
Формат : RLE
Формат/Информация : Run-length encoding
Режим смешивания : DVD-Video
Текст #3
Идентификатор : 189 (0xBD)-35 (0x23)
Формат : RLE
Формат/Информация : Run-length encoding
Режим смешивания : DVD-Video

Скриншоты меню

Скриншоты

Полиграфия

[teatrix.ru].t7109.torrent 
Торрент: Зарегистрирован [ 2015-10-11 11:22 ] · 861B1D147C3186D0804B47CAAA63499B7CFDC2D9

Скачать .torrent

Скачать

23 KB

Статус: проверено
Скачан: 0 раз
Размер: 4.2 GB
terms.php



Быстрый ответ

Имя:

      
Для отправки сообщений необходимо включить JavaScript
Показать сообщения:    

Текущее время: 04-Дек 00:43

Часовой пояс: UTC + 3


Вы можете начинать темы
Вы можете отвечать на сообщения
Вы не можете редактировать свои сообщения
Вы не можете удалять свои сообщения
Вы не можете голосовать в опросах
Вы не можете прикреплять файлы к сообщениям
Вы можете скачивать файлы