Поздняя весна / Banshun / Late Spring (Ясудзиро Одзу / Yasujiro Ozu) [1949, Япония, Драма, DVD9 (Custom)] Sub Eng, Rus(lil kodomo (DivXClub)) + Original Jap / Criterion Collection#331


Статистика раздачи [Обновить пиров]
Размер:  6.6 GB   |    Зарегистрирован:  1 год 1 месяц   |    Скачан:  0 раз

Полного источника не было: Никогда

 
   
 
 
 

[Цитировать]

Поздняя весна / Banshun / Late Spring / Criterion Collection#331 Диск 1 Страна:ЯпонияСтудия:Shochiku Films Ltd.Жанр:Драма
Год выпуска:1949
Продолжительность:01:48:09
Производитель:The Criterion Collection #331
Перевод:Профессиональный (двухголосый, закадровый) Студия "Инис"
Cубтитры:Английские, Русские-lil_kodomo (DivXClub)
Оригинальная аудиодорожка:Японский
Премьера (мир):13.09.1949
Режиссер:Ясудзиро Одзу / Yasujiro OzuВ ролях:Тисю Рю — Сукити Сомия, отец
Сэцуко Хара — Норико Сомия, дочь
Юмэдзи Цукиока — Ая Китагава
Харуко Сугимура — Маса Тагути
Хохи Аоки — Кацуёси
Дзюн Усами — Сёити Хаттори
Кунико Миякэ — Акико Мива
Масао Мисима — Дзё Онодэра
Ёсико Цубоути — Кику
Ёко Кацураги — Мисако
Описание:Фильм рассказывает историю пожилого человека, который в одиночку воспитал дочь и теперь хотел бы выдать её замуж, как ни мучительно и горько им расставаться друг с другом.
Доп. информация:Исходник найден в сети.Профессиональный (двухголосый, закадровый)-Студия "Инис"Звуковая дорожка предоставлена MinimalBoy.Реавторинг Нордер.Огромное Спасибо Всем, без чьей помощи этот релиз не состоялся бы!Сценарий:Кого Нода, Ясудзиро Одзу, Кацуо ХироцуПродюсер:Такеси ЯмамотоОператор:Юхару АцутаКомпозитор:Сэндзи ИтоХудожник:Тацуо Хамада, Бундзиро Судзуки, Мотоцугу КомакиМонтаж:Ёсиясу Хамамура

Знаете ли вы, что

Награды и номинации

Рецензия

Софт

PGCDemux (извлечение).
BeSweet, Sony Vegas 9 (звук).
DVD-lab PRO 2.
MuxMan (сборка). DvdReMakePro (финал).

Бонусы:(Без перевода)

-Audio commentary by Richard Pena, program director of New York’s Film Society of Lincoln Center-A booklet featuring essays by critic Michael Atkinson and Japanese-film historian Donald Richie, as well as Ozu’s thoughts on screenwriter Kogo Noda
Меню:Английский, анимированное, озвученное.Сэмпл:http://multi-up.com/1056967
Тип релиза:DVD9 (Custom)
Контейнер:DVD-Video
Видео:NTSC 4:3 (720x480) VBR, 7753 Кбит/сек, 29,970 кадра/сек
Аудио 1:Русский:AC3, 2 ch, 48.0 KHz, 192 Кбит/сек / Профессиональный (двухголосый, закадровый) Студия "Инис"Аудио 2:Английский:AC3, 1 ch, 48.0 KHz, 192 Кбит/сек / Комментарий Richard PenaАудио 3:Японский:AC3, 1 ch, 48.0 KHz, 192 Кбит/сек / ОригиналФормат субтитров:prerendered (DVD/IDX+SUB)

Dvd Info

Title: Late Spring DVD-9_Custom_Criterion#331
Size: 6.60 Gb ( 6 918 858,00 KBytes ) - DVD-9
Enabled regions: 1, 2, 3, 4, 5, 6, 7, 8
VTS_01 :
Play Length: 00:00:00
Video: NTSC 4:3 (720x480) VBR
VTS_02 :
Play Length: 01:48:09
Video: NTSC 4:3 (720x480) VBR
Audio:
Russian, AC3, 2/0 (L,R) ch, 192 kbps, Delay 0 mSec
English, AC3, 1/0 (C) ch, 192 kbps, Delay 0 mSec
Japanese, AC3, 1/0 (C) ch, 192 kbps, Delay 0 mSec
Subtitles:
English
Russian
VTS_03 :
Play Length: 00:00:20
Video: NTSC 16:9 (720x480) VBR, Auto Pan&Scan
VTS_04 :
Play Length: 00:00:00
Video: NTSC 4:3 (720x480) VBR

Mediainfo

Общее
Полное имя: F:\Late Spring DVD-9_Custom_Criterion#331\VIDEO_TS\VTS_02_1.VOB
Формат : MPEG-PS
Размер файла : 1024 Мбайт
Продолжительность : 16 м.
Режим общего битрейта : Переменный
Общий поток : 8498 Кбит/сек
Видео
Идентификатор : 224 (0xE0)
Формат : MPEG Video
Версия формата : Version 2
Профиль формата : Main@Main
Параметр BVOP формата : Да
Параметр матрицы формата : Выборочная
Параметр GOP формата : Variable
Структура изображения : Frame
Продолжительность : 16 м.
Вид битрейта : Переменный
Битрейт : 7753 Кбит/сек
Максимальный битрейт : 9410 Кбит/сек
Ширина : 720 пикселей
Высота : 480 пикселей
Соотношение сторон : 4:3
Частота кадров : 29,970 кадров/сек
Стандарт вещания : NTSC
Цветовое пространство : YUV
Субдискретизация насыщенности : 4:2:0
Битовая глубина : 8 бит
Тип развёртки : Чересстрочная
Порядок развёртки : Верхнее поле первое
Метод сжатия : С потерями
Бит/(Пиксели*Кадры) : 0.748
Временной код первого кадра : 00:59:44:00
Оригинал временного кода : Group of pictures header
GOP, открыто/закрыто : Открыто
GOP, открыто/закрыто на первом кадре : Закрыто
Размер потока : 934 Мбайт (91%)
Аудио #1
Идентификатор : 189 (0xBD)-128 (0x80)
Формат : AC-3
Формат/Информация : Audio Coding 3
Расширение режима : CM (complete main)
Параметр Endianness формата : Big
Режим смешивания : DVD-Video
Продолжительность : 16 м.
Вид битрейта : Постоянный
Битрейт : 192 Кбит/сек
Каналы : 2 канала
Расположение каналов : Front: L R
Частота : 48,0 КГц
Метод сжатия : С потерями
Размер потока : 23,1 Мбайт (2%)
Аудио #2
Идентификатор : 189 (0xBD)-129 (0x81)
Формат : AC-3
Формат/Информация : Audio Coding 3
Расширение режима : CM (complete main)
Параметр Endianness формата : Big
Режим смешивания : DVD-Video
Продолжительность : 16 м.
Вид битрейта : Постоянный
Битрейт : 192 Кбит/сек
Каналы : 1 канал
Расположение каналов : Front: C
Частота : 48,0 КГц
Метод сжатия : С потерями
Размер потока : 23,1 Мбайт (2%)
Аудио #3
Идентификатор : 189 (0xBD)-130 (0x82)
Формат : AC-3
Формат/Информация : Audio Coding 3
Расширение режима : CM (complete main)
Параметр Endianness формата : Big
Режим смешивания : DVD-Video
Продолжительность : 16 м.
Вид битрейта : Постоянный
Битрейт : 192 Кбит/сек
Каналы : 1 канал
Расположение каналов : Front: C
Частота : 48,0 КГц
Метод сжатия : С потерями
Размер потока : 23,1 Мбайт (2%)
Текст #1
Идентификатор : 189 (0xBD)-32 (0x20)
Формат : RLE
Формат/Информация : Run-length encoding
Режим смешивания : DVD-Video
Текст #2
Идентификатор : 189 (0xBD)-33 (0x21)
Формат : RLE
Формат/Информация : Run-length encoding
Режим смешивания : DVD-Video

Скриншоты меню

Скриншоты

Скриншоты доп. материалов

[teatrix.ru].t7110.torrent 
Торрент: Зарегистрирован [ 2015-10-11 11:22 ] · E8F145FD50CF0DD8D5DB0577C36939DD219A616F

Скачать .torrent

Скачать

35 KB

Статус: проверено
Скачан: 0 раз
Размер: 6.6 GB
terms.php



Быстрый ответ

Имя:

      
Для отправки сообщений необходимо включить JavaScript
Показать сообщения:    

Текущее время: 09-Дек 12:44

Часовой пояс: UTC + 3


Вы можете начинать темы
Вы можете отвечать на сообщения
Вы не можете редактировать свои сообщения
Вы не можете удалять свои сообщения
Вы не можете голосовать в опросах
Вы не можете прикреплять файлы к сообщениям
Вы можете скачивать файлы