Она танцевала одно лето / Hon dansade en sommar (Арне Маттсон / Arne Mattsson) [1951, Швеция, драма, мелодрама, DVD5 (Custom)] [4:3 PAL R2] VO (Urasiko) + Sub Eng + Original Swe


Статистика раздачи [Обновить пиров]
Размер:  4.38 GB   |    Зарегистрирован:  1 год 1 месяц   |    Скачан:  0 раз

Полного источника не было: Никогда

 
   
 
 
 

[Цитировать]

Она танцевала одно лето / Hon dansade en sommar
4:3 PAL R2

Слоган: «The picture everyone is talking about! See it from the beginning!»
Страна: Швеция
Студия: Nordisk Tonefilm
Жанр: драма, мелодрама
Год выпуска: 1951
Продолжительность: 01:43:13
Перевод: Одноголосый закадровый - Urasiko
Cубтитры: английские
Оригинальная аудиодорожка: шведский
Режиссер: Арне Маттсон / Arne Mattsson
В ролях: Эдвин Адолфсон, Улла Якобссон, Йон Эльфстрём, Фольке Сундквист, Эрик Хелль, Ирма Кристенсон, Стэн Линдгрен, Нильс Халльберг, Стэн Мэттссон, Гунвор Понтен ...
Описание: Студент Йорен проводит каникулы на ферме своего дяди. В первый день он встречает 17-летнюю Шерстин, которая живет на ферме поблизости. Молодые люди влюбляются друг в друга, но и родственники Шерстин, и отец Йорена против их отношений…
Доп. информация: Диск собран из Hon dansade en sommar_1951_DVD5 R2 найденного в сети. (Который на постере)
Бонусы: Фотогалерея.
Меню: Статичное, неозвученное, на шведском и английском.Меню неотредактировано, переключение звуковых дорожек с пульта.
Фильм автоматически стартует с рус. звук. дорожкой.
-- --Hon dansade en sommar_1951_DVD5 R2_Sample_.rar-
-

Награды


-
-Тип релиза: DVD5 (Custom)
Контейнер: DVD-Video
Видео: PAL 4:3 (720x576) VBR, ~ 5852.90 kbps avg
Аудио 1: Russian, AC3, 2/0 (L,R) ch, 192 kbps, Delay 0 mSec
Аудио 2: Svenska, AC3, 2/0 (L,R) ch, 192 kbps, Delay 0 mSec
Формат субтитров: prerendered (DVD/IDX+SUB)

MediaInfo

General
Complete name : C:\Temp\_RELEASES_\Hon dansade en sommar_1951_DVD5 R2\VIDEO_TS\VTS_01_4.VOB
Format : MPEG-PS
File size : 1 024 MiB
Duration : 26mn 20s
Overall bit rate mode : Variable
Overall bit rate : 5 437 Kbps
Video
ID : 224 (0xE0)
Format : MPEG Video
Format version : Version 2
Format profile : Main@Main
Format settings, BVOP : Yes
Format settings, Matrix : Custom
Format settings, GOP : M=3, N=12
Format settings, picture st : Frame
Duration : 26mn 19s
Bit rate mode : Variable
Bit rate : 4 944 Kbps
Maximum bit rate : 7 993 Kbps
Width : 720 pixels
Height : 576 pixels
Display aspect ratio : 4:3
Frame rate : 25.000 fps
Standard : PAL
Color space : YUV
Chroma subsampling : 4:2:0
Bit depth : 8 bits
Scan type : Interlaced
Scan order : Bottom Field First
Compression mode : Lossy
Bits/(Pixel*Frame) : 0.477
Time code of first frame : 01:11:43:12
Time code source : Group of pictures header
GOP, Open/Closed : Closed
Stream size : 931 MiB (91%)
Color primaries : BT.601 PAL
Transfer characteristics : BT.470 System B, BT.470 System G
Matrix coefficients : BT.601
Audio #1
ID : 189 (0xBD)-128 (0x80)
Format : AC-3
Format/Info : Audio Coding 3
Mode extension : CM (complete main)
Format settings, Endianness : Big
Muxing mode : DVD-Video
Duration : 26mn 20s
Bit rate mode : Constant
Bit rate : 192 Kbps
Channel(s) : 2 channels
Channel positions : Front: L R
Sampling rate : 48.0 KHz
Compression mode : Lossy
Delay relative to video : -568ms
Stream size : 36.2 MiB (4%)
Audio #2
ID : 189 (0xBD)-129 (0x81)
Format : AC-3
Format/Info : Audio Coding 3
Mode extension : CM (complete main)
Format settings, Endianness : Big
Muxing mode : DVD-Video
Duration : 26mn 20s
Bit rate mode : Constant
Bit rate : 192 Kbps
Channel(s) : 2 channels
Channel positions : Front: L R
Sampling rate : 48.0 KHz
Compression mode : Lossy
Delay relative to video : -568ms
Stream size : 36.2 MiB (4%)
Text
ID : 189 (0xBD)-32 (0x20)
Format : RLE
Format/Info : Run-length encoding
Muxing mode : DVD-Video
Duration : 26mn 12s
Delay relative to video : 3s 40ms
Menu

DVDInfo

Title: Hon dansade en sommar_1951_DVD5 R2
Size: 4.38 Gb ( 4 591 700,00 KBytes ) - DVD-5
Enabled regions: 1, 2, 3, 4, 5, 6, 7, 8
VTS_01 :
Play Length: 01:43:13
Video: PAL 4:3 (720x576) VBR
Audio:
Russian, AC3, 2/0 (L,R) ch, 192 kbps, Delay 0 mSec
Svenska, AC3, 2/0 (L,R) ch, 192 kbps, Delay 0 mSec
Subtitles:
English
VTS_02 :
Play Length: 00:00:09
Video: PAL 4:3 (720x576) VBR
Audio:
Svenska (Dolby AC3, 2 ch)
Subtitles:
English
VTS_03 :
Play Length: 00:00:09
Video: PAL 4:3 (720x576) VBR
Audio:
Svenska (Dolby AC3, 2 ch)
Subtitles:
English
VTS_04 :
Play Length: 00:03:32
Video: PAL 4:3 (720x576) VBR
Subtitles:
English
* Menus Information *
VIDEO_TS Menu
Video:
NTSC 4:3 (720x480) VBR
Auto Pan&Scan, Auto Letterboxed
English Language Unit :
Title Menu
VTS_01 Menu
Video:
PAL 4:3 (720x576) VBR
English Language Unit :
Root Menu
VTS_02 Menu
Video:
NTSC 4:3 (720x480) VBR
Auto Pan&Scan, Auto Letterboxed
English Language Unit :
Root Menu
VTS_03 Menu
Video:
NTSC 4:3 (720x480) VBR
Auto Pan&Scan, Auto Letterboxed
English Language Unit :
Root Menu
VTS_04 Menu
Video:
NTSC 4:3 (720x480) VBR
Auto Pan&Scan, Auto Letterboxed
English Language Unit :
Root Menu

П. О.

PgcDemux 1.2.0.5 - разделение компонентов диска на файлы;
BeSweetv1.5b31+BeLight 0.21 - AC3 -> Wav
Sound Forge pro 10 - Wav -> AC3
MuxMan DVD authoring Professional 1.4.4 - мультиплексирование и авторинг DVD;
DVDRemake Pro 3.6.4 - реавторинг DVD;
DVD Shrink 3.2 - Сэмпл
VLC - Скриншоты-
-
-

-
-
-BeSweet v1.5b31 by DSPguru.
--------------------------
Using azid.dll v1.9 (b922) by Midas (midas@egon.gyaloglo.hu).
Logging start : 06/29/15 , 06:21:57.
BeSweet.exe -core( -input C:\Temp\Sonne\AudioFile_80.ac3 -output C:\Temp\Sonne\AudioFile_80.wav -2ch -logfile C:\Temp\Sonne\AudioFile_80.log ) -azid( -s mono -c normal -L -3db )
[00:00:00:000] +------- BeSweet -----
[00:00:00:000] | Input : C:\Temp\Sonne\AudioFile_80.ac3
[00:00:00:000] | Output: C:\Temp\Sonne\AudioFile_80.wav
[00:00:00:000] | Floating-Point Process: No
[00:00:00:000] +-------- AZID -------
[00:00:00:000] | Input Channels Mode: 2/0, Bitrate: 192kbps
[00:00:00:000] | Output Stereo mode: Dolby surround 2 compatible
[00:00:00:000] | Total Gain: 0.000dB, Compression: Normal
[00:00:00:000] | LFE levels: To LR -3.0dB, To LFE 0.0dB
[00:00:00:000] | Center mix level: BSI
[00:00:00:000] | Surround mix level: BSI
[00:00:00:000] | Dialog normalization: No
[00:00:00:000] | Rear channels filtering: No
[00:00:00:000] | Source Sample-Rate: 48.0KHz
[00:00:00:000] +---------------------
[01:43:13:152] Conversion Completed !
[01:43:13:152] Actual Avg. Bitrate : 148kbps
[00:01:46:000]
[teatrix.ru].t7112.torrent 
Торрент: Зарегистрирован [ 2015-10-11 11:22 ] · 53950703721E6A547689217EF5B1C646EFB161C8

Скачать .torrent

Скачать

23 KB

Статус: проверено
Скачан: 0 раз
Размер: 4.38 GB
terms.php



Быстрый ответ

Имя:

      
Для отправки сообщений необходимо включить JavaScript
Показать сообщения:    

Текущее время: 05-Дек 11:32

Часовой пояс: UTC + 3


Вы можете начинать темы
Вы можете отвечать на сообщения
Вы не можете редактировать свои сообщения
Вы не можете удалять свои сообщения
Вы не можете голосовать в опросах
Вы не можете прикреплять файлы к сообщениям
Вы можете скачивать файлы