Путь гиены / Touki Bouki (Джибрил Диоп Мамбети / Djibril Diop Mambty) [1973, Сенегал, Роуд-Муви, Драма, DVD9 (Custom)] Sub Eng, Rus (bezumnypiero) + Original Wol / Criterion Collection#685


Статистика раздачи [Обновить пиров]
Размер:  6.56 GB   |    Зарегистрирован:  1 год 1 месяц   |    Скачан:  2 раза

Полного источника не было: 1 день 11 часов

 
   
 
 
 

[Цитировать]

Путь гиены / Туки-Буки / Touki Bouki / Criterion Collection#685
Страна:СенегалСтудия:Cinegrit, Studio Kankourama.Жанр:Роуд-Муви, Драма, Криминал
Год выпуска:1973
Продолжительность:01:30:30
Производитель:The Criterion Collection #685
Перевод:Субтитры bezumnypiero
Cубтитры:Английские, Русские
Оригинальная аудиодорожка:Волоф
Премьера (мир):21.10.1976
Режиссер:Джибрил Диоп Мамбети / Djibril Diop MambetyВ ролях:Магайе Ньян, Марем Ньян, Амината Фолл, Ousseynou Diop, Джозефин Бейкер, Кристоф Коломб, Ndou Labia, Mustapha Ture
Описание:Моури, пастух, который ездит на мотоцикле, украшенном черепом коровы, и Анта, студентка, встретились в Дакаре, столице Сенегала. Отверженные и разочарованные Сенегалом и Африкой, они стремятся попасть в Париж и разрабатывают различные мошеннические схемы, чтобы заработать денег.
Доп. информация:Исходник найден в сети.Русские субтитры-bezumnypieroРеавторинг Нордер.Огромное Спасибо Всем, без чьей помощи этот релиз не состоялся бы!Сценарий:Джибрил Диоп МамбетуПродюсер:Джибрил Диоп Мамбету, Медун ФэйОператор:Georges BracherКомпозитор:Josephine Baker, Mado Robin, Aminata Fall

Это интересно

Мамбети, Джибрил Диоп-https://ru.wikipedia.org/wiki/Мамбети,_Джибрил_Диоп
Фильм-https://en.wikipedia.org/wiki/Touki_Bouki

Награды и номинации

Лучший африканский фильм всех времен и народов. №52 в рейтинге "100 лучших фильмов мирового кино" журнала Empire (по состоянию на 2010 г.) №93 в рейтинге фильмов мирового кино от журнала Sight&Sound по опросу международной кинокритики в 2012 г. Диплом и приз ФИПРЕССИ на фестивале в Москве (1973 г.). Приз международной критики на фестивале в Каннах (1973 г.)

Рецензия

Софт

PGCDemux (извлечение).
DVD-lab PRO 2, Subtitle Workshop (субтитры).
MuxMan (сборка). DvdReMakePro (финал).

Бонусы:(Без перевода)

- New digital restorations of all six films, undertaken by the World Cinema Project in collaboration with the Cineteca di Bologna, with uncompressed monaural soundtracks on the Blu-rays
- New introductions to the films by World Cinema Project founder Martin Scorsese
- New interview programs featuring filmmakers Abderrahmane Sissako (on Touki bouki)-New English subtitle translations
Меню:Английский, статичное, неозвученное.Сэмпл:http://multi-up.com/1055695
Тип релиза:DVD9 (Custom)
Контейнер:DVD-Video
Видео:NTSC 4:3 (720x480) VBR, 8593 Кбит/сек, 23,976 кадра/сек
Аудио:Волоф:AC3, 1 ch, 48.0 KHz, 384 Кбит/сек / ОригиналФормат субтитров:prerendered (DVD/IDX+SUB)

Dvd Info

Title: Touki Bouki DVD-9_Custom_Criterion#685
Size: 6.56 Gb ( 6 873 676,00 KBytes ) - DVD-9
Enabled regions: 1, 2, 3, 4, 5, 6, 7, 8
VTS_01 :
Play Length: 00:00:00
Video: NTSC 4:3 (720x480) VBR
VTS_02 :
Play Length: 01:30:30
Video: NTSC 4:3 (720x480) VBR
Audio:
Wolof (Dolby AC3, 1 ch)
Subtitles:
English
Russian
VTS_03 :
Play Length: 00:00:20
Video: NTSC 4:3 (720x480) VBR
VTS_04 :
Play Length: 00:02:16
Video: NTSC 16:9 (720x480) VBR, Auto Letterboxed
Audio:
English, AC3, 1/0 (C) ch, 192 kbps, Delay 0 mSec
VTS_05 :
Play Length: 00:11:56
Video: NTSC 16:9 (720x480) VBR, Auto Letterboxed
Audio:
Francais, AC3, 1/0 (C) ch, 192 kbps, Delay 0 mSec
Subtitles:
English
VTS_06 :
Play Length: 00:00:00
Video: NTSC 4:3 (720x480) VBR

Mediainfo

Общее
Полное имя: F:\Touki Bouki DVD-9_Custom_Criterion#685\VIDEO_TS\VTS_02_2.VOB
Формат : MPEG-PS
Размер файла : 1024 Мбайт
Продолжительность : 15 м.
Режим общего битрейта : Переменный
Общий поток : 9160 Кбит/сек
Видео
Идентификатор : 224 (0xE0)
Формат : MPEG Video
Версия формата : Version 2
Профиль формата : Main@Main
Параметр BVOP формата : Да
Параметр матрицы формата : Выборочная
Параметр GOP формата : Variable
Продолжительность : 15 м.
Вид битрейта : Переменный
Битрейт : 8593 Кбит/сек
Максимальный битрейт : 9800 Кбит/сек
Ширина : 720 пикселей
Высота : 480 пикселей
Соотношение сторон : 4:3
Частота кадров : 23,976 кадра/сек
Цветовое пространство : YUV
Субдискретизация насыщенности : 4:2:0
Битовая глубина : 8 бит
Тип развёртки : Прогрессивная
Порядок развёртки : 2:3 Pulldown
Метод сжатия : С потерями
Бит/(Пиксели*Кадры) : 1.037
Временной код первого кадра : 01:15:53:21
Оригинал временного кода : Group of pictures header
Размер потока : 960 Мбайт (94%)
Аудио
Идентификатор : 189 (0xBD)-128 (0x80)
Формат : AC-3
Формат/Информация : Audio Coding 3
Расширение режима : CM (complete main)
Параметр Endianness формата : Big
Режим смешивания : DVD-Video
Продолжительность : 15 м.
Вид битрейта : Постоянный
Битрейт : 384 Кбит/сек
Каналы : 1 канал
Расположение каналов : Front: C
Частота : 48,0 КГц
Метод сжатия : С потерями
Задержка видео : -373 мс.
Размер потока : 42,9 Мбайт (4%)
Текст #1
Идентификатор : 189 (0xBD)-32 (0x20)
Формат : RLE
Формат/Информация : Run-length encoding
Режим смешивания : DVD-Video
Текст #2
Идентификатор : 189 (0xBD)-33 (0x21)
Формат : RLE
Формат/Информация : Run-length encoding
Режим смешивания : DVD-Video

Скриншоты меню

Скриншоты

Скриншоты доп. материалов


[teatrix.ru].t7115.torrent 
Торрент: Зарегистрирован [ 2015-10-11 11:22 ] · 6E0B3B4930353E0DB33335E5C0D455807FE70A2D

Скачать .torrent

Скачать

35 KB

Статус: проверено
Скачан: 2 раз
Размер: 6.56 GB
terms.php



Быстрый ответ

Имя:

      
Для отправки сообщений необходимо включить JavaScript
Показать сообщения:    

Текущее время: 10-Дек 11:56

Часовой пояс: UTC + 3


Вы можете начинать темы
Вы можете отвечать на сообщения
Вы не можете редактировать свои сообщения
Вы не можете удалять свои сообщения
Вы не можете голосовать в опросах
Вы не можете прикреплять файлы к сообщениям
Вы можете скачивать файлы