Река по имени Титаш / Titash Ekti Nadir Naam / A River Called Titas (Ритвик Гхатак / Ritwik Ghatak) [1973, Индия, Бангладеш, Драма, DVD9 (Custom)] Sub Eng, Rus(М.Комарова)+Original Beng / Criterion Collection#687


Статистика раздачи [Обновить пиров]
Размер:  7.63 GB   |    Зарегистрирован:  1 год 1 месяц   |    Скачан:  0 раз

Полного источника не было: Никогда

 
   
 
 
 

[Цитировать]

Река по имени Титаш / Река по имени Титас / Titash Ekti Nadir Naam / A River Called Titas / Criterion Collection#687
Страна:Индия, Бангладеш
Жанр:Драма
Год выпуска:1973
Продолжительность:02:38:21
Производитель:The Criterion Collection #687
Перевод:Субтитры Марина Комарова
Cубтитры:Английские, Русские
Оригинальная аудиодорожка:Бенгальский
Премьера (мир):11.01.1991
Режиссер:Ритвик Гхатак / Ritwik GhatakВ ролях:Fakrul Hasan Bairagi, Нараин Чакраборти, Банани Чадхури, Kabari Choudhury, Четана Дас, Ритвик Гатак, Shafikul Islam, Sirajul Islam, Рушан Джамил, M.A. Khair
Описание:Фильм драма классика индийского кинематографа, драматурга и сценариста Ритвика Гхатака.
Фильм основан на знаменитом бенгальском романе Мала Бармана.
Снят в Восточной Бенгалии, вскоре после провозглашения независимости Бангладеш. Режиссер Гхатак был очень подавлен изменениями, случившимися на его Родине. Предпоследний художественный фильм режиссера является мрачным признанием неизбежности изменений, и ужасной повторяющейся власти возрождения и упадка. Фильм – это сырой и сильный рассказ о сохнущей реке и умирающей культуре.
Начинается фильм с устрашающего вида отступившей реки, пока ещё спокойной, но властной. Дополняет картину выразительный голос традиционного исполнителя народных песен Дхираджа Уддин Факира, который исполняет гимн могущественной реке Титаш в Восточной Бенгалии. Она является всем для местных жителей, проявляя своё изящество, гнев и милосердие. Люди верят в неё и живут благодаря ей.
В рыбацкой деревушке на берегу реки живет девочка Басанти. Она готовится к ритуалу Maghmandal, означающий окончание зимы и переход её в зрелый возраст. Два друга Кишор и Субол проявляют привязанность к Басанти. Через несколько лет, вместе с дядей они отправляются на рыбалку и желая продать поскорее товар оказываются в другой деревне. Там, на празднике Кишор спасает Раджар - дочь местного старосты деревни и по воле обстоятельств становится её спутником жизни. Но союз оказывается недолговечным. По дороге назад, бандиты крадут молодую жену. Кишора ждет безумие. Но найдется ли Раджар? Как сложится судьба остальных героев? Что же будет с Басанти и Суболом? Что будет с жителями деревни? Что будет с рекой?
Река Титас – это вдумчивая, искренняя и сладостно-горькая хроника бедности. Фильм стоит того, чтобы его посмотреть.

Доп. информация:Исходник найден в сети.Русские субтитры-Марина КомароваРеавторинг Нордер.Огромное Спасибо Всем, без чьей помощи этот релиз не состоялся бы!Сценарий:Ритвик Гатак, Advaita Malla BurmanПродюсер:Habibur Rahman KhanОператор:Бейби ИсламКомпозитор:Ustad Bahadur KhanМонтаж:Basheer Hussain

Рецензия


Софт

PGCDemux (извлечение).
DVD-lab PRO 2, Subtitle Workshop (субтитры).
MuxMan (сборка). DvdReMakePro (финал).

Бонусы:(Без перевода)

- New digital restorations of all six films, undertaken by the World Cinema Project in collaboration with the Cineteca di Bologna, with uncompressed monaural soundtracks on the Blu-rays
- New introductions to the films by World Cinema Project founder Martin Scorsese
- New interview programs featuring filmmakers Kumar Shahani - New English subtitle translations
Меню:Английский, статичное, неозвученное.Сэмпл:https://www.sendspace.com/file/m19ul0
Тип релиза:DVD9 (Custom)
Контейнер:DVD-Video
Видео:NTSC 4:3 (720x480) VBR, 5909 Кбит/сек, 23,976 кадра/сек
Аудио:Бенгальский:AC3, 1 ch, 48.0 KHz, 384 Кбит/сек / ОригиналФормат субтитров:prerendered (DVD/IDX+SUB)

Dvd Info

Title: A River Called Titas DVD-9_Custom_Criterion#687
Size: 7.63 Gb ( 7 998 358,00 KBytes ) - DVD-9
Enabled regions: 1, 2, 3, 4, 5, 6, 7, 8
VTS_01 :
Play Length: 00:00:00
Video: NTSC 4:3 (720x480) VBR
VTS_02 :
Play Length: 02:38:21
Video: NTSC 4:3 (720x480) VBR
Audio:
Bengali, AC3, 1/0 (C) ch, 384 kbps, Delay 0 mSec
Subtitles:
English
Russian
VTS_03 :
Play Length: 00:00:20
Video: NTSC 4:3 (720x480) VBR
VTS_04 :
Play Length: 00:02:40
Video: NTSC 16:9 (720x480) VBR, Auto Letterboxed
Audio:
English, AC3, 1/0 (C) ch, 192 kbps, Delay 0 mSec
VTS_05 :
Play Length: 00:15:33
Video: NTSC 16:9 (720x480) VBR, Auto Letterboxed
Audio:
Bengali, AC3, 1/0 (C) ch, 192 kbps, Delay 0 mSec
Subtitles:
English
VTS_06 :
Play Length: 00:00:00
Video: NTSC 4:3 (720x480) VBR

Mediainfo

Общее
Полное имя: F:\A River Called Titas DVD-9_Custom_Criterion#687\VIDEO_TS\VTS_02_2.VOB
Формат : MPEG-PS
Размер файла : 1024 Мбайт
Продолжительность : 22 м.
Режим общего битрейта : Переменный
Общий поток : 6420 Кбит/сек
Видео
Идентификатор : 224 (0xE0)
Формат : MPEG Video
Версия формата : Version 2
Профиль формата : Main@Main
Параметр BVOP формата : Да
Параметр матрицы формата : Выборочная
Параметр GOP формата : Variable
Продолжительность : 22 м.
Вид битрейта : Переменный
Битрейт : 5909 Кбит/сек
Максимальный битрейт : 9800 Кбит/сек
Ширина : 720 пикселей
Высота : 480 пикселей
Соотношение сторон : 4:3
Частота кадров : 23,976 кадра/сек
Цветовое пространство : YUV
Субдискретизация насыщенности : 4:2:0
Битовая глубина : 8 бит
Тип развёртки : Прогрессивная
Порядок развёртки : 2:3 Pulldown
Метод сжатия : С потерями
Бит/(Пиксели*Кадры) : 0.713
Временной код первого кадра : 01:21:21:22
Оригинал временного кода : Group of pictures header
GOP, открыто/закрыто : Открыто
Размер потока : 942 Мбайт (92%)
Аудио
Идентификатор : 189 (0xBD)-128 (0x80)
Формат : AC-3
Формат/Информация : Audio Coding 3
Расширение режима : CM (complete main)
Параметр Endianness формата : Big
Режим смешивания : DVD-Video
Продолжительность : 22 м.
Вид битрейта : Постоянный
Битрейт : 384 Кбит/сек
Каналы : 1 канал
Расположение каналов : Front: C
Частота : 48,0 КГц
Метод сжатия : С потерями
Задержка видео : -752 мс.
Размер потока : 61,2 Мбайт (6%)
Текст #1
Идентификатор : 189 (0xBD)-32 (0x20)
Формат : RLE
Формат/Информация : Run-length encoding
Режим смешивания : DVD-Video
Текст #2
Идентификатор : 189 (0xBD)-33 (0x21)
Формат : RLE
Формат/Информация : Run-length encoding
Режим смешивания : DVD-Video

Скриншоты меню


Скриншоты

Скриншоты доп. материалов


[teatrix.ru].t7116.torrent 
Торрент: Зарегистрирован [ 2015-10-11 11:22 ] · BC464CF177B33ED0ED793F63BE51C40F3F338B98

Скачать .torrent

Скачать

40 KB

Статус: проверено
Скачан: 0 раз
Размер: 7.63 GB
terms.php



Быстрый ответ

Имя:

      
Для отправки сообщений необходимо включить JavaScript
Показать сообщения:    

Текущее время: 07-Дек 17:30

Часовой пояс: UTC + 3


Вы можете начинать темы
Вы можете отвечать на сообщения
Вы не можете редактировать свои сообщения
Вы не можете удалять свои сообщения
Вы не можете голосовать в опросах
Вы не можете прикреплять файлы к сообщениям
Вы можете скачивать файлы