Скрытое / Caché / Hidden (Михаэль Ханеке / Michael Haneke) [2005, Франция, Австрия, Германия, Италия, Триллер, Драма, Детектив, DVD9 (Custom)] MVO (R5) + AVO (А.Гаврилов) + Sub Eng, Esp, Rus + Original Fre


Статистика раздачи [Обновить пиров]
Размер:  7.87 GB   |    Зарегистрирован:  1 год 1 месяц   |    Скачан:  1 раз

Полного источника не было: 10 месяцев 27 дней

 
   
 
 
 

[Цитировать]

Скрытое / Cache / Hidden
Страна:Франция, Австрия, Германия, Италия
Студия:Ostereichisches Filminstitut, arte France Cinema, Bavaria Film, BIM Distribuzione, Canal+ [fr], Centre National de la Cinematographie (CNC), Eurimages, Filmfonds Wien, Filmstiftung Nordrhein-Westfalen, France 3 Cinema, Les Films du Losange, ORF Film/Fernseh-Abkommen, Studio Canal, Wega Film, Westdeutscher Rundfunk (WDR).
Жанр:Триллер, Драма, ДетективГод выпуска:2005
Продолжительность:01:58:12Перевод 1:Профессиональный (многоголосый закадровый) R5Перевод 2:Авторский (одноголосый закадровый) А.Гаврилов
Cубтитры:Английские, Испанские, Русские
Оригинальная аудиодорожка:Французский
Премьера (мир):14.05.2005
Режиссер:Михаэль Ханеке / Michael HanekeВ ролях:Даниель Отой, Жюльет Бинош, Морис Бенишу, Анни Жирардо, Бернар Ле Кок, Валид Афкир, Лестер Македонски, Даниэль Дюваль, Натали Ришар, Дени Подалидес
Описание:Литературный критик Джордж получает по почте коробку. Он раскрывает ее и обнаруживает видеопленки, где записаны фрагменты жизни его самого и его семьи.
Постепенно эти кадры наводят Джорджа на мысль, что отправитель странной посылки неплохо его знает. Он начинает тревожиться. Но полиция отказывается действовать, пока Джорджу ничто не угрожает. Кто отправитель посылки и какую цель он преследует?

Доп. информация:Исходник найден в сети.Звуковые дорожки и субтитры .Реавторинг Нордер.Огромное Спасибо Всем, без чьей помощи этот релиз не состоялся бы!Сценарий:Михаэль ХанекеПродюсер:Файт Хайдушка, Михаэль Андре, Реми БураОператор:Кристиан БергерХудожник:Эммануэль де Шовиньи, Кристоф Кантер, Лизи КристлМонтаж:Майкл Худечек, Надин Мьюз

Знаете ли вы, что...

Награды и номинации


Рецензия

Софт

PGCDemux (извлечение).
BeSweet, Sony Vegas 9 (звук).
DVD-lab PRO 2, Subtitle Workshop (субтитры).
MuxMan (сборка). DvdReMakePro (финал).

Бонусы:(Без перевода)

- Making of Hidden (31:49)
- Inteview with Michael Haneke (25:25)
- 10 Bonus trailers
Меню:Английский, статичное, неозвученное.Сэмпл:https://www.sendspace.com/file/2twlwf
Тип релиза:DVD9 (Custom)
Контейнер:DVD-Video
Видео:NTSC 16:9 (720x480) VBR, Auto Letterboxed, 5459 Кбит/сек, 23,976 кадра/сек
Аудио 1:Русский:AC3, 6 ch, 48.0 KHz, 448 Кбит/сек / Профессиональный(многоголосый, закадровый)R5Аудио 2:Русский:AC3, 2 ch, 48.0 KHz, 192 Кбит/сек / Авторский (одноголосый закадровый) А.Гаврилов
Аудио 3:Французский:AC3, 6 ch, 48.0 KHz, 448 Кбит/сек / (Оригинал)Формат субтитров:prerendered (DVD/IDX+SUB)

Dvd Info

Title: Hidden DVD-9_Custom
Size: 7.87 Gb ( 8 255 174,00 KBytes ) - DVD-9
Enabled regions: 1, 2, 3, 4, 5, 6, 7, 8
VTS_01 :
Play Length: 01:58:12
Video: NTSC 16:9 (720x480) VBR, Auto Letterboxed
Audio:
Russian, AC3, 3/2 (L,C,R,SL,SR)+LFE ch, 448 kbps, Delay 0 mSec
Russian, AC3, 2/0 (L,R) ch, 192 kbps, Delay 0 mSec
Francais, AC3, 3/2 (L,C,R,SL,SR) ch, 448 kbps, Delay 0 mSec
Subtitles:
English
Espanol
Russian
VTS_02 :
Play Length: 00:25:26
Video: NTSC 4:3 (720x480) VBR
Audio:
Francais, AC3, 2/0 (L,R) ch, 192 kbps, Delay 0 mSec
Subtitles:
English
VTS_03 :
Play Length: 00:31:51
Video: NTSC 4:3 (720x480) VBR
Audio:
Francais, AC3, 2/0 (L,R) ch, 192 kbps, Delay 0 mSec
Subtitles:
English
VTS_04 :
Play Length: 00:01:57
Video: NTSC 16:9 (720x480) VBR, Auto Letterboxed
Audio:
English, AC3, 2/0 (L,R) ch, 192 kbps, Delay 0 mSec
VTS_05 :
Play Length: 00:01:53
Video: NTSC 16:9 (720x480) VBR, Auto Letterboxed
Audio:
English, AC3, 2/0 (L,R) ch, 192 kbps, Delay 0 mSec
VTS_06 :
Play Length: 00:01:40
Video: NTSC 16:9 (720x480) VBR, Auto Letterboxed
Audio:
English, AC3, 2/0 (L,R) ch, 192 kbps, Delay 0 mSec
VTS_07 :
Play Length: 00:01:55
Video: NTSC 16:9 (720x480) VBR, Auto Letterboxed
Audio:
English, AC3, 2/0 (L,R) ch, 192 kbps, Delay 0 mSec
VTS_08 :
Play Length: 00:01:53
Video: NTSC 16:9 (720x480) VBR, Auto Letterboxed
Audio:
English, AC3, 3/2 (L,C,R,SL,SR)+LFE ch, 448 kbps, Delay 0 mSec
VTS_09 :
Play Length: 00:01:49
Video: NTSC 16:9 (720x480) VBR, Auto Letterboxed
Audio:
English, AC3, 3/2 (L,C,R,SL,SR)+LFE ch, 448 kbps, Delay 0 mSec
VTS_10 :
Play Length: 00:02:11
Video: NTSC 16:9 (720x480) VBR, Auto Letterboxed
Audio:
English, AC3, 2/0 (L,R) ch, 192 kbps, Delay 0 mSec
VTS_11 :
Play Length: 00:01:55
Video: NTSC 16:9 (720x480) VBR, Auto Letterboxed
Audio:
English, AC3, 2/0 (L,R) ch, 192 kbps, Delay 0 mSec
VTS_12 :
Play Length: 00:02:27
Video: NTSC 16:9 (720x480) VBR, Auto Letterboxed
Audio:
English, AC3, 2/0 (L,R) ch, 192 kbps, Delay 0 mSec
VTS_13 :
Play Length: 00:01:33
Video: NTSC 4:3 (720x480) VBR
Audio:
English, AC3, 2/0 (L,R) ch, 192 kbps, Delay 0 mSec
VTS_14 :
Play Length: 00:00:14
Video: NTSC 16:9 (720x480) VBR, Auto Pan&Scan
Audio:
English, AC3, 3/2 (L,C,R,SL,SR)+LFE ch, 448 kbps, Delay 0 mSec
VTS_15 :
Play Length: 00:00:09
Video: NTSC 16:9 (720x480) VBR, Auto Pan&Scan
VTS_16 :
Play Length: 00:00:15
Video: NTSC 16:9 (720x480) VBR, Auto Pan&Scan
VTS_17 :
Play Length: 00:00:09
Video: NTSC 16:9 (720x480) VBR, Auto Pan&Scan
VTS_18 :
Play Length: 00:00:37
Video: NTSC 16:9 (720x480) VBR, Auto Pan&Scan
VTS_19 :
Play Length: 00:00:19
Video: NTSC 16:9 (720x480) VBR, Auto Pan&Scan

Mediainfo

Общее
Полное имя: F:\Hidden DVD-9_Custom\VIDEO_TS\VTS_01_1.VOB
Формат : MPEG-PS
Размер файла : 1024 Мбайт
Продолжительность : 21 м.
Режим общего битрейта : Переменный
Общий поток : 6680 Кбит/сек
Видео
Идентификатор : 224 (0xE0)
Формат : MPEG Video
Версия формата : Version 2
Профиль формата : Main@Main
Параметр BVOP формата : Да
Параметр матрицы формата : Выборочная
Параметр GOP формата : Variable
Продолжительность : 21 м.
Вид битрейта : Переменный
Битрейт : 5459 Кбит/сек
Максимальный битрейт : 9800 Кбит/сек
Ширина : 720 пикселей
Высота : 480 пикселей
Соотношение сторон : 16:9
Частота кадров : 23,976 кадра/сек
Цветовое пространство : YUV
Субдискретизация насыщенности : 4:2:0
Битовая глубина : 8 бит
Тип развёртки : Прогрессивная
Порядок развёртки : 2:3 Pulldown
Метод сжатия : С потерями
Бит/(Пиксели*Кадры) : 0.659
Временной код первого кадра : 00:59:58;00
Оригинал временного кода : Group of pictures header
Размер потока : 837 Мбайт (82%)
Аудио #1
Идентификатор : 189 (0xBD)-128 (0x80)
Формат : AC-3
Формат/Информация : Audio Coding 3
Расширение режима : CM (complete main)
Параметр Endianness формата : Big
Режим смешивания : DVD-Video
Продолжительность : 21 м.
Вид битрейта : Постоянный
Битрейт : 448 Кбит/сек
Каналы : 6 каналов
Расположение каналов : Front: L C R, Side: L R, LFE
Частота : 48,0 КГц
Метод сжатия : С потерями
Размер потока : 68,7 Мбайт (7%)
Аудио #2
Идентификатор : 189 (0xBD)-129 (0x81)
Формат : AC-3
Формат/Информация : Audio Coding 3
Расширение режима : CM (complete main)
Параметр Endianness формата : Big
Режим смешивания : DVD-Video
Продолжительность : 21 м.
Вид битрейта : Постоянный
Битрейт : 192 Кбит/сек
Каналы : 2 канала
Расположение каналов : Front: L R
Частота : 48,0 КГц
Метод сжатия : С потерями
Размер потока : 29,4 Мбайт (3%)
Аудио #3
Идентификатор : 189 (0xBD)-130 (0x82)
Формат : AC-3
Формат/Информация : Audio Coding 3
Расширение режима : CM (complete main)
Параметр Endianness формата : Big
Режим смешивания : DVD-Video
Продолжительность : 21 м.
Вид битрейта : Постоянный
Битрейт : 448 Кбит/сек
Каналы : 5 каналов
Расположение каналов : Front: L C R, Side: L R
Частота : 48,0 КГц
Метод сжатия : С потерями
Размер потока : 68,7 Мбайт (7%)
Текст
Идентификатор : 224 (0xE0)-CC3
Формат : EIA-608
Режим смешивания, доп. информация : Muxed in Video #1
Вид битрейта : Постоянный
Размер потока : 0,00 байт (0%)

Скриншоты меню


Скриншоты

Скриншоты доп. материалов


[teatrix.ru].t7121.torrent 
Торрент: Зарегистрирован [ 2015-10-11 11:22 ] · 307A34AEB42F6FA947D0EA08513BC04824EB1023

Скачать .torrent

Скачать

44 KB

Статус: проверено
Скачан: 1 раз
Размер: 7.87 GB
terms.php



Быстрый ответ

Имя:

      
Для отправки сообщений необходимо включить JavaScript
Показать сообщения:    

Текущее время: 09-Дек 08:47

Часовой пояс: UTC + 3


Вы можете начинать темы
Вы можете отвечать на сообщения
Вы не можете редактировать свои сообщения
Вы не можете удалять свои сообщения
Вы не можете голосовать в опросах
Вы не можете прикреплять файлы к сообщениям
Вы можете скачивать файлы