Сало, или 120 дней содома / Salo o le 120 giornate di Sodoma (Пьер Паоло Пазолини / Pier Paolo Pasolini) [1975, Италия, Франция, Драма, DVD9 (Custom)+DVD9] MVO (R5) + MVO (С.Р.И) + AVO (С. Кузнецов) +Sub Eng, Rus+Origina Ita / Criterion Collection#17


Статистика раздачи [Обновить пиров]
Размер:  15.13 GB   |    Зарегистрирован:  1 год 3 месяца   |    Скачан:  0 раз

Полного источника не было: Никогда

 
   
 
 
 

[Цитировать]

Сало, или 120 дней содома / Salo o le 120 giornate di Sodoma / Salo, or the 120 Days of Sodom / Criterion Collection#17«The final vision of a controversial filmmaker»
Страна:Италия, Франция
Студия:Les Productions Artistes Associes, Produzioni Europee Associati (PEA), United Artists.
Жанр:Драма, ВоенныйГод выпуска:1975
Продолжительность:01:56:36
Производитель:The Criterion Collection #17
Перевод 1:Профессиональный (многоголосый закадровый) R5Перевод 2:Профессиональный (многоголосый закадровый) С.Р.ИПеревод 3:Одноголосый закадровый С.Кузнецов
Cубтитры:Английские(2 вида), Русские
Оригинальная аудиодорожка:Итальянский
Премьера (мир):22.11.1975
Режиссер:Пьер Паоло Пазолини / Pier Paolo PasoliniВ ролях:Паоло Боначелли — герцог
Джорджо Катальди — епископ
Уберто Паоло Квинтавалле — магистрат
Альдо Валетти — президент
Катерина Боратто — синьора Кастелли
Эльза Де Джорджи — синьора Маджи
Элен Сюржер — синьора Ваккари
Соня Савьянж — пианистка
Описание:Экранизируя роман маркиза де Сада, Пазолини переносит действие в 1944-45-е годы, в фашистскую «республику Сало» на севере Италии, где
группа лиц из высшего общества во главе с принцем унижает, издевается, мучает, пытает юношей и девушек, собранных для услаждения извращённой элиты, чувствующей свою погибель.
Четыре месяца длится эта экзекуция. Для взрослых это последняя возможность удовлетворить свои низменные инстинкты, для молодых людей — расплата за свою юность и желание жить.

Доп. информация:Исходник найден в сети.
Звуковые дорожки и субтитры взяты из раздачи[
Реавторинг Нордер.Огромное СпасибоВсем, без чьей помощи этот релиз не состоялся бы!Сценарий:Пьер Паоло Пазолини, Серджо Читти, Пупи АватиПродюсер:Альберто Гримальди, Альберто Де Стефанис, Антонио ГирасантеОператор:Тонино Делли КоллиКомпозитор:Эннио МорриконеХудожник:Данте Ферретти, Данило Донати, Освальдо ДезидериМонтаж:Нино Баральи, Татьяна Казини Мориджи, Энцо Оконе

Рецензия

Софт

PGCDemux(извлечение).
BeSweet, Sony Vegas 9 (звук).
DVD-lab PRO 2, Subtitle Workshop (субтитры).
MuxMan (сборка). DvdReMakePro (финал).

Бонусы:(Без перевода)


Disc 1,2:
- New, restored high-definition digital transfer
- Optional English-dubbed soundtrack
- Theatrical Trailer
- "Salo": Yesterday and Today" documentary (33 mins)
-"Fade to Black" featurette (23 mins)
- "The End Of Salo" documentary (40 mins)
- New interviews with set designer Dante Ferretti and director and film scholar Jean-Pierre Gorin
Меню:Английский, статичное, озвученное.Сэмпл Диск 1:https://www.sendspace.com/file/8isk0mСэмпл Диск 2:https://www.sendspace.com/file/vmfis3Тип релиза:DVD9 (Custom)+DVD9
Контейнер:DVD-Video
Видео:NTSC 16:9 (720x480) VBR, Auto Letterboxed, 8237 Кбит/сек, 29,970 кадров/сек
Аудио 1:Итальянский:AC3, 1 ch, 48.0 KHz, 192 Кбит/сек / (Оригинал)Аудио 2:Английский:AC3, 1 ch, 48.0 KHz, 192 Кбит/секАудио 3:Русский:AC3, 2 ch, 48.0 KHz, 192 Кбит/сек / Профессиональный (многоголосый, закадровый) R5Аудио 4:Русский:AC3, 2 ch, 48.0 KHz, 192 Кбит/сек / Профессиональный (многоголосый, закадровый) С.Р.ИАудио 5:Русский:AC3, 1 ch, 48.0 KHz, 96 Кбит/сек / Авторский(одноголосый закадровый) С.КузнецовФормат субтитров:prerendered (DVD/IDX+SUB)

Dvd Info- Диск 1

Title: Диск 1
Size: 7.73 Gb ( 8 108 468,00 KBytes ) - DVD-9
Enabled regions: 1, 2, 3, 4, 5, 6, 7, 8
VTS_01 :
Play Length: 00:00:00
Video: NTSC 16:9 (720x480) VBR, Auto Letterboxed
VTS_02 :
Play Length: 00:03:27
Video: NTSC 16:9 (720x480) VBR, Auto Letterboxed
Audio:
English, AC3, 1/0 (C) ch, 192 kbps, Delay 0 mSec
VTS_03 :
Play Length: 01:56:36
Video: NTSC 16:9 (720x480) VBR, Auto Letterboxed
Audio:
Italiano, AC3, 1/0 (C) ch, 192 kbps, Delay 0 mSec
English, AC3, 1/0 (C) ch, 192 kbps, Delay 0 mSec
Russian, AC3, 2/0 (L,R) ch, 192 kbps, Delay 0 mSec
Russian, AC3, 2/0 (L,R) ch, 192 kbps, Delay 0 mSec
Russian, AC3, 1/0 (C) ch, 96 kbps, Delay 0 mSec
Subtitles:
English
English
Russian
VTS_04 :
Play Length: 00:00:20
Video: NTSC 16:9 (720x480) VBR, Auto Pan&Scan
VTS_05 :
Play Length: 00:00:00
Video: NTSC 4:3 (720x480) VBR

Dvd Info- Диск 2

Title:Диск 2
Size: 7.40 Gb ( 7 756 142,00 KBytes ) - DVD-9
Enabled regions: 1, 2, 3, 4, 5, 6, 7, 8
VTS_01 :
Play Length: 00:00:00
Video: NTSC 16:9 (720x480) VBR, Auto Letterboxed
VTS_02 :
Play Length: 00:27:07
Video: NTSC 16:9 (720x480) VBR, Auto Letterboxed
Audio:
English, AC3, 1/0 (C) ch, 192 kbps, Delay 0 mSec
Subtitles:
English
VTS_03 :
Play Length: 00:39:45
Video: NTSC 4:3 (720x480) VBR
Audio:
Italiano, AC3, 1/0 (C) ch, 192 kbps, Delay 0 mSec
Subtitles:
English
VTS_04 :
Play Length: 00:33:15
Video: NTSC 4:3 (720x480) VBR
Audio:
Italiano, AC3, 1/0 (C) ch, 192 kbps, Delay 0 mSec
Subtitles:
English
VTS_05 :
Play Length: 00:11:26
Video: NTSC 16:9 (720x480) VBR, Auto Letterboxed
Audio:
Italiano, AC3, 1/0 (C) ch, 192 kbps, Delay 0 mSec
Subtitles:
English
VTS_06 :
Play Length: 00:23:20
Video: NTSC 16:9 (720x480) VBR, Auto Letterboxed
Audio:
English, AC3, 1/0 (C) ch, 192 kbps, Delay 0 mSec
VTS_07 :
Play Length: 00:00:00
Video: NTSC 4:3 (720x480) VBR

Mediainfo- Диск 1

Общее
Полное имя: F:\Salo or the 120 Days of Sodom DVD9_Custom+DVD9_Criterion_#17\Диск 1\VIDEO_TS\VTS_03_1.VOB
Формат : MPEG-PS
Размер файла : 1024 Мбайт
Продолжительность : 15 м.
Режим общего битрейта : Переменный
Общий поток : 9285 Кбит/сек
Видео
Идентификатор : 224 (0xE0)
Формат : MPEG Video
Версия формата : Version 2
Профиль формата : Main@Main
Параметр BVOP формата : Да
Параметр матрицы формата : Выборочная
Параметр GOP формата : M=3, N=12
Продолжительность : 15 м.
Вид битрейта : Переменный
Битрейт : 8237 Кбит/сек
Максимальный битрейт : 9396 Кбит/сек
Ширина : 720 пикселей
Высота : 480 пикселей
Соотношение сторон : 16:9
Частота кадров : 29,970 кадров/сек
Стандарт вещания : NTSC
Цветовое пространство : YUV
Субдискретизация насыщенности : 4:2:0
Битовая глубина : 8 бит
Метод сжатия : С потерями
Бит/(Пиксели*Кадры) : 0.795
Временной код первого кадра : 00:59:39:00
Оригинал временного кода : Group of pictures header
GOP, открыто/закрыто : Открыто
GOP, открыто/закрыто на первом кадре : Закрыто
Размер потока : 908 Мбайт (89%)
Аудио #1
Идентификатор : 189 (0xBD)-128 (0x80)
Формат : AC-3
Формат/Информация : Audio Coding 3
Расширение режима : CM (complete main)
Параметр Endianness формата : Big
Режим смешивания : DVD-Video
Продолжительность : 15 м.
Вид битрейта : Постоянный
Битрейт : 192 Кбит/сек
Каналы : 1 канал
Расположение каналов : Front: C
Частота : 48,0 КГц
Метод сжатия : С потерями
Размер потока : 21,2 Мбайт (2%)
Аудио #2
Идентификатор : 189 (0xBD)-129 (0x81)
Формат : AC-3
Формат/Информация : Audio Coding 3
Расширение режима : CM (complete main)
Параметр Endianness формата : Big
Режим смешивания : DVD-Video
Продолжительность : 15 м.
Вид битрейта : Постоянный
Битрейт : 192 Кбит/сек
Каналы : 1 канал
Расположение каналов : Front: C
Частота : 48,0 КГц
Метод сжатия : С потерями
Размер потока : 21,2 Мбайт (2%)
Аудио #3
Идентификатор : 189 (0xBD)-130 (0x82)
Формат : AC-3
Формат/Информация : Audio Coding 3
Расширение режима : CM (complete main)
Параметр Endianness формата : Big
Режим смешивания : DVD-Video
Продолжительность : 15 м.
Вид битрейта : Постоянный
Битрейт : 192 Кбит/сек
Каналы : 2 канала
Расположение каналов : Front: L R
Частота : 48,0 КГц
Метод сжатия : С потерями
Размер потока : 21,2 Мбайт (2%)
Аудио #4
Идентификатор : 189 (0xBD)-131 (0x83)
Формат : AC-3
Формат/Информация : Audio Coding 3
Расширение режима : CM (complete main)
Параметр Endianness формата : Big
Режим смешивания : DVD-Video
Продолжительность : 15 м.
Вид битрейта : Постоянный
Битрейт : 192 Кбит/сек
Каналы : 2 канала
Расположение каналов : Front: L R
Частота : 48,0 КГц
Метод сжатия : С потерями
Размер потока : 21,2 Мбайт (2%)
Аудио #5
Идентификатор : 189 (0xBD)-132 (0x84)
Формат : AC-3
Формат/Информация : Audio Coding 3
Расширение режима : CM (complete main)
Параметр Endianness формата : Big
Режим смешивания : DVD-Video
Продолжительность : 15 м.
Вид битрейта : Постоянный
Битрейт : 96,0 Кбит/сек
Каналы : 1 канал
Расположение каналов : Front: C
Частота : 48,0 КГц
Метод сжатия : С потерями
Размер потока : 10,6 Мбайт (1%)
Текст
Идентификатор : 189 (0xBD)-34 (0x22)
Формат : RLE
Формат/Информация : Run-length encoding
Режим смешивания : DVD-Video

Mediainfo- Диск 2

Общее
Полное имя: F:\Salo or the 120 Days of Sodom DVD9_Custom+DVD9_Criterion_#17\Диск 2\VIDEO_TS\VTS_02_1.VOB
Формат : MPEG-PS
Размер файла : 1024 Мбайт
Продолжительность : 18 м.
Режим общего битрейта : Переменный
Общий поток : 7813 Кбит/сек
Видео
Идентификатор : 224 (0xE0)
Формат : MPEG Video
Версия формата : Version 2
Профиль формата : Main@Main
Параметр BVOP формата : Да
Параметр матрицы формата : Выборочная
Параметр GOP формата : M=3, N=15
Структура изображения : Frame
Продолжительность : 18 м.
Вид битрейта : Переменный
Битрейт : 7466 Кбит/сек
Максимальный битрейт : 9588 Кбит/сек
Ширина : 720 пикселей
Высота : 480 пикселей
Соотношение сторон : 16:9
Частота кадров : 29,970 кадров/сек
Стандарт вещания : NTSC
Цветовое пространство : YUV
Субдискретизация насыщенности : 4:2:0
Битовая глубина : 8 бит
Тип развёртки : Чересстрочная
Порядок развёртки : Верхнее поле первое
Метод сжатия : С потерями
Бит/(Пиксели*Кадры) : 0.721
Временной код первого кадра : 02:26:00:00
Оригинал временного кода : Group of pictures header
GOP, открыто/закрыто : Открыто
GOP, открыто/закрыто на первом кадре : Закрыто
Размер потока : 978 Мбайт (96%)
Аудио
Идентификатор : 189 (0xBD)-128 (0x80)
Формат : AC-3
Формат/Информация : Audio Coding 3
Расширение режима : CM (complete main)
Параметр Endianness формата : Big
Режим смешивания : DVD-Video
Продолжительность : 18 м.
Вид битрейта : Постоянный
Битрейт : 192 Кбит/сек
Каналы : 1 канал
Расположение каналов : Front: C
Частота : 48,0 КГц
Метод сжатия : С потерями
Размер потока : 25,2 Мбайт (2%)
Текст #1
Идентификатор : 189 (0xBD)-32 (0x20)
Формат : RLE
Формат/Информация : Run-length encoding
Режим смешивания : DVD-Video
Текст #2
Идентификатор : 189 (0xBD)-33 (0x21)
Формат : RLE
Формат/Информация : Run-length encoding
Режим смешивания : DVD-Video

Скриншоты меню-Диск 1

Скриншоты фильма-Диск 1

Скриншоты доп. материалов-Диск 1

Скриншоты меню-Диск 2



Скриншоты доп. материалов-Диск 2



Внимание! Фильм не рекомендован к просмотру лицам до 18 лет, пожилым людям, беременным женщинам и людям с психическими отклонениями! В фильме неоднократно фигурируют действия, выходящие за рамки, так называемых, общепринятых норм морали и приличия! Если вы не уверены, что хотите это видеть - не качайте и не смотрите!
[teatrix.ru].t7126.torrent 
Торрент: Зарегистрирован [ 2015-10-11 11:22 ] · 231D13DB5FD46473B7CCE35522DBA296F5A35AD7

Скачать .torrent

Скачать

80 KB

Статус: проверено
Скачан: 0 раз
Размер: 15.13 GB
terms.php



Быстрый ответ

Имя:

      
Для отправки сообщений необходимо включить JavaScript
Показать сообщения:    

Текущее время: 19-Янв 16:03

Часовой пояс: UTC + 3


Вы можете начинать темы
Вы можете отвечать на сообщения
Вы не можете редактировать свои сообщения
Вы не можете удалять свои сообщения
Вы не можете голосовать в опросах
Вы не можете прикреплять файлы к сообщениям
Вы можете скачивать файлы