Сальво / Salvo (Фабио Грассадония / Fabio Grassadonia, Антонио Пьяцца / Antonio Piazza) [2013, Италия, Франция, драма, DVD9 (Custom)] VO (МЕГАПЫХАРЬ) + Sub Eng + Original Ita


Статистика раздачи [Обновить пиров]
Размер:  7.62 GB   |    Зарегистрирован:  1 год 1 месяц   |    Скачан:  0 раз

Полного источника не было: Никогда

 
   
 
 
 

[Цитировать]

Сальво / Salvo
Страна: Италия, Франция
Жанр: драма
Год выпуска: 2013
Продолжительность: 01:45:10
Перевод: Одноголосый закадровый МЕГАПЫХАРЬ
Cубтитры: английские
Оригинальная аудиодорожка: итальянский
Режиссер: Фабио Грассадония / Fabio Grassadonia , Антонио Пьяцца / Antonio Piazza
В ролях: Салех Бакри, Луиджи Ло Кашио, Сара Серайокко, Марио Пупелла, Редуэн Бехаш
Описание: Сицилия, Палермо. Киллер мафии не выполняет заказ до конца и оставляет в живых сестру своей жертвы, слепую девушку Риту. Он похищает ее и перевозит с места на место, но как только между ними возникают отношения, пара оказывается окруженной со всех сторон бандитами.
Доп. информация: Диск из собственной коллекции.
Бонусы: Трейлер, со съёмочной площадки, интевью,короткометражка (Б/П)
Сэмпл: http://sendfile.su/1125415
Тип релиза: DVD9 (Custom)
Контейнер: DVD-Video
Видео: PAL 16:9 (720x576) VBR Auto Pan&Scan
Аудио: Russian (Dolby AC3, 192 Kbps, 2 ch)
Аудио 2: Italiano (Dolby AC3, 448 Kbps, 6 ch)
Аудио 3: Italiano (DTS, 775 Kbps, 6 ch)
Формат субтитров: prerendered (DVD/IDX+SUB)

DVDInfo

Size: 7.62 Gb ( 7 989 622 KBytes ) - DVD-9
Enabled regions: 1, 2, 3, 4, 5, 6, 7, 8
VTS_01 :
Play Length: 00:00:23
Video: PAL 16:9 (720x576) VBR, Auto Pan&Scan
Audio:
Italiano (Dolby AC3, 6 ch)
VTS_02 :
Play Length: 01:45:10
Video: PAL 16:9 (720x576) VBR, Auto Pan&Scan
Audio:
Russian (Dolby AC3, 2 ch)
Italiano (Dolby AC3, 6 ch)
Italiano (DTS, 6 ch)
Subtitles:
Italiano
Italiano
English
VTS_03 :
Play Length: 00:01:29
Video: PAL 16:9 (720x576) VBR, Auto Pan&Scan
Audio:
Italiano (Dolby AC3, 6 ch)
VTS_04 :
Play Length: 00:19:40
Video: PAL 16:9 (720x576) VBR, Auto Pan&Scan
Audio:
Italiano (Dolby AC3, 2 ch)
VTS_05 :
Play Length: 00:15:50
Video: PAL 16:9 (720x576) VBR, Auto Pan&Scan
Audio:
Italiano (Dolby AC3, 2 ch)
VTS_06 :
Play Length: 00:04:41
Video: PAL 16:9 (720x576) VBR, Auto Pan&Scan
Audio:
Italiano (Dolby AC3, 2 ch)
VTS_07 :
Play Length: 00:03:43
Video: PAL 16:9 (720x576) VBR, Auto Pan&Scan
Audio:
Italiano (Dolby AC3, 2 ch)
VTS_08 :
Play Length: 00:04:03
Video: PAL 16:9 (720x576) VBR, Auto Pan&Scan
Audio:
Italiano (Dolby AC3, 2 ch)
VTS_09 :
Play Length: 00:20:04
Video: PAL 16:9 (720x576) VBR, Auto Pan&Scan
Audio:
Italiano (Dolby AC3, 2 ch)
VTS_10 :
Play Length: 00:00:14
Video: PAL 16:9 (720x576) VBR, Auto Pan&Scan
Audio:
Italiano (Dolby AC3, 6 ch)
Menu Video:
PAL 16:9 (720x576) VBR
Auto Pan&Scan
Menu Audio:
Not specified (Dolby AC3, 6 ch)
Menu Subtitles:
Not specified
Menu Italiano Language Unit :
Root Menu
Audio Menu
Chapter (PTT) Menu

MediaInfo

General
Complete name : F:\Salvo_2013\VIDEO_TS\VTS_02_1.VOB
Format : MPEG-PS
File size : 1 024 MiB
Duration : 20mn 21s
Overall bit rate mode : Variable
Overall bit rate : 7 034 Kbps
Video
ID : 224 (0xE0)
Format : MPEG Video
Format version : Version 2
Format profile : Main@Main
Format settings, BVOP : Yes
Format settings, Matrix : Custom
Format settings, GOP : M=3, N=12
Duration : 20mn 21s
Bit rate mode : Variable
Bit rate : 5 500 Kbps
Maximum bit rate : 7 800 Kbps
Width : 720 pixels
Height : 576 pixels
Display aspect ratio : 16:9
Frame rate : 25.000 fps
Standard : PAL
Color space : YUV
Chroma subsampling : 4:2:0
Bit depth : 8 bits
Scan type : Interlaced
Scan order : Top Field First
Compression mode : Lossy
Bits/(Pixel*Frame) : 0.530
Stream size : 801 MiB (78%)
Audio #1
ID : 189 (0xBD)-128 (0x80)
Format : AC-3
Format/Info : Audio Coding 3
Mode extension : CM (complete main)
Format settings, Endianness : Big
Muxing mode : DVD-Video
Duration : 20mn 20s
Bit rate mode : Constant
Bit rate : 192 Kbps
Channel(s) : 2 channels
Channel positions : Front: L R
Sampling rate : 48.0 KHz
Bit depth : 16 bits
Compression mode : Lossy
Stream size : 27.9 MiB (3%)
Audio #2
ID : 189 (0xBD)-129 (0x81)
Format : AC-3
Format/Info : Audio Coding 3
Mode extension : CM (complete main)
Format settings, Endianness : Big
Muxing mode : DVD-Video
Duration : 20mn 20s
Bit rate mode : Constant
Bit rate : 448 Kbps
Channel(s) : 6 channels
Channel positions : Front: L C R, Side: L R, LFE
Sampling rate : 48.0 KHz
Bit depth : 16 bits
Compression mode : Lossy
Stream size : 65.2 MiB (6%)
Audio #3
ID : 189 (0xBD)-138 (0x8A)
Format : DTS
Format/Info : Digital Theater Systems
Muxing mode : DVD-Video
Duration : 20mn 20s
Bit rate mode : Constant
Bit rate : 755 Kbps
Channel(s) : 6 channels
Channel positions : Front: L C R, Side: L R, LFE
Sampling rate : 48.0 KHz
Bit depth : 24 bits
Compression mode : Lossy
Stream size : 110 MiB (11%)
Menu

Постеры и обложка

Скриншоты меню

Скриншоты

[teatrix.ru].t7127.torrent 
Торрент: Зарегистрирован [ 2015-10-11 11:22 ] · DACF4CD9955CF5C685989709182241FAE1F39324

Скачать .torrent

Скачать

41 KB

Статус: проверено
Скачан: 0 раз
Размер: 7.62 GB
terms.php



Быстрый ответ

Имя:

      
Для отправки сообщений необходимо включить JavaScript
Показать сообщения:    

Текущее время: 04-Дек 09:09

Часовой пояс: UTC + 3


Вы можете начинать темы
Вы можете отвечать на сообщения
Вы не можете редактировать свои сообщения
Вы не можете удалять свои сообщения
Вы не можете голосовать в опросах
Вы не можете прикреплять файлы к сообщениям
Вы можете скачивать файлы