Макбет / The Tragedy of Macbeth (Роман Полански / Roman Polanski) [1971, Великобритания, США, Драма, Военный, История, DVD9(Custom)+DVD9] MVO(DVD Магия) + MVO(SomeWax) + Sub Eng, Rus + Original Eng / Criterion Collection#726


Статистика раздачи [Обновить пиров]
Размер:  15.12 GB   |    Зарегистрирован:  1 год 1 месяц   |    Скачан:  0 раз

Полного источника не было: Никогда

 
   
 
 
 

[Цитировать]

Макбет / The Tragedy of Macbeth / Criterion Collection#726
Страна:Великобритания, США
Студия:Caliban Films, Playboy Productions Inc.
Жанр:Драма, Военный, ИсторияГод выпуска:1971
Продолжительность:02:20:15
Производитель:The Criterion Collection #726
Перевод 1:Профессиональный (многоголосый закадровый) DVD МагияПеревод 2:Профессиональный (многоголосый закадровый) SomeWaxCубтитры:Английские, Русские(2 вида)
Оригинальная аудиодорожка:Английский
Премьера (мир):13.10.1971
Режиссер:Роман Полански / Roman PolanskiВ ролях:Джон Финч — Макбет
Франческа Аннис — леди Макбет
Мартин Шоу — Банко
Теренс Бэйлер — Макдуф
Джон Страйд — Росс
Николас Селби — Дункан
Стефан Чейз — Малкольм
Пол Шелли — Дональбэйн
Мэйзи МакФаркьюхар — первая ведьма
Элзи Тейлор — вторая ведьма
Ноэлла Риммингтон — третья ведьма
Ноэль Дэвис — Сейтон
Сидни Бромли — привратник
Ричард Пирсон — доктор
Описание:Впечатляющая экранизация знаменитой шекспировской трагедии о шотландском дворянине Макбете, который пожелал занять королевский трон. Он, одержимый этой целью, движется от убийства к убийству, не щадя даже друзей, вырезая целые семьи. Но он забыл о пророчестве трех ведьм...
Доп. информация:Исходник найден в сети.
Профессиональный (многоголосый, закадровый) - DVD Магия,Профессиональный (многоголосый, закадровый) - SomeWax и русские субтитры (2вида)Из-за превышения размера удален трейлер.
Реавторинг Нордер.Огромное Спасибо Всем, без чьей помощи этот релиз не состоялся бы!Сценарий:Роман Полански, Кеннет Тайнен, Уильям ШекспирПродюсер:Эндрю Браунсберг, Тимоти Баррилл, Хью М. ХефнерОператор:Гилберт ТейлорКомпозитор:The Third Ear BandХудожник:Уилфред Шинглтон, Фред Картер, Энтони МендельсонМонтаж:Аластер Макинтайр
Полански, Роман-https://ru.wikipedia.org/wiki/Полански,_РоманФильм-https://ru.wikipedia.org/wiki/Макбет_(фильм,_1971)Знаете ли вы, что">

Это интересноПолански, Роман-https://ru.wikipedia.org/wiki/Полански,_РоманФильм-https://ru.wikipedia.org/wiki/Макбет_(фильм,_1971)Знаете ли вы, что


Награды и номинации


Рецензия

Софт

PGCDemux (извлечение).
BeSweet, Sony Vegas 9 (звук).
DVD-lab PRO 2, Subtitle Workshop (субтитры).
MuxMan (сборка). DvdReMakePro (финал).

Бонусы:(Без перевода)


Disc 1,2:
-Toil and Trouble: Making “Macbeth,” a new documentary featuring interviews with Polanski, producer Andrew Braunsberg, assistant executive producer Victor Lownes, and actors Francesca Annis and Martin Shaw
-Polanski Meets Macbeth, a 1971 documentary by Frank Simon featuring rare footage of the film’s cast and crew at work
-Interview with coscreenwriter Kenneth Tynan from a 1971 episode of The Dick Cavett Show
-“Two Macbeths,” a segment from a 1972 episode of the British television series Aquarius featuring Polanski and theater director Peter Coe
-Trailers
-PLUS: An essay by critic Terrence Rafferty
Меню:Английский, статичное, озвученное.Сэмпл Диск 1:https://www.sendspace.com/file/qngah6Сэмпл Диск 2:https://www.sendspace.com/file/t7i722Тип релиза:DVD9 (Custom)+DVD9
Контейнер:DVD-Video
Видео:NTSC 16:9 (720x480) VBR, Auto Letterboxed, 7046 Кбит/сек, 23,976 кадра/сек
Аудио 1:Русский:AC3, 2 ch, 48.0 KHz, 192 Кбит/сек / Профессиональный (многоголосый, закадровый) DVD МагияАудио 2:Русский:AC3, 2 ch, 48.0 KHz, 192 Кбит/сек / Профессиональный (многоголосый, закадровый) SomeWaxАудио 3:Английский:AC3, 6 ch, 48.0 KHz, 448 Кбит/сек / (Оригинал)Формат субтитров:prerendered (DVD/IDX+SUB)

Dvd Info- Диск 1

Title: Диск 1
Size: 7.92 Gb ( 8 305 506,00 KBytes ) - DVD-9
Enabled regions: 1, 2, 3, 4, 5, 6, 7, 8
VTS_01 :
Play Length: 00:00:00
Video: NTSC 16:9 (720x480) VBR, Auto Letterboxed
VTS_02 :
Play Length: 02:20:15
Video: NTSC 16:9 (720x480) VBR, Auto Letterboxed
Audio:
Russian, AC3, 2/0 (L,R) ch, 192 kbps, Delay 0 mSec
Russian, AC3, 2/0 (L,R) ch, 192 kbps, Delay 0 mSec
English, AC3, 3/2 (L,C,R,SL,SR)+LFE ch, 448 kbps, Delay 0 mSec
Subtitles:
English
Russian
Russian
VTS_03 :
Play Length: 00:00:20
Video: NTSC 16:9 (720x480) VBR, Auto Pan&Scan
VTS_04 :
Play Length: 00:00:01
Video: NTSC 16:9 (720x480) VBR, Auto Letterboxed
Audio:
English (Dolby AC3, 1 ch)
VTS_05 :
Play Length: 00:00:00
Video: NTSC 4:3 (720x480) VBR

Dvd Info- Диск 2

Title: Диск 2
Size: 7.20 Gb ( 7 545 260,00 KBytes ) - DVD-9
Enabled regions: 1, 2, 3, 4, 5, 6, 7, 8
VTS_01 :
Play Length: 00:00:00
Video: NTSC 16:9 (720x480) VBR, Auto Letterboxed
VTS_02 :
Play Length: 00:47:28
Video: NTSC 4:3 (720x480) VBR
Audio:
English, AC3, 1/0 (C) ch, 192 kbps, Delay 0 mSec
VTS_03 :
Play Length: 00:30:01
Video: NTSC 4:3 (720x480) VBR
Audio:
English, AC3, 1/0 (C) ch, 192 kbps, Delay 0 mSec
VTS_04 :
Play Length: 00:13:33
Video: NTSC 4:3 (720x480) VBR
Audio:
English, AC3, 1/0 (C) ch, 192 kbps, Delay 0 mSec
VTS_05 :
Play Length: 01:00:25
Video: NTSC 16:9 (720x480) VBR, Auto Letterboxed
Audio:
English, AC3, 2/0 (L,R) ch, 192 kbps, Delay 0 mSec
VTS_06 :
Play Length: 00:00:00
Video: NTSC 4:3 (720x480) VBR

Mediainfo- Диск 1

Общее
Полное имя: F:\Macbeth DVD9_Custom+DVD9_Criterion_#726\Диск 1\VIDEO_TS\VTS_02_2.VOB
Формат : MPEG-PS
Размер файла : 1024 Мбайт
Продолжительность : 17 м.
Режим общего битрейта : Переменный
Общий поток : 8038 Кбит/сек
Видео
Идентификатор : 224 (0xE0)
Формат : MPEG Video
Версия формата : Version 2
Профиль формата : Main@Main
Параметр BVOP формата : Да
Параметр матрицы формата : Выборочная
Параметр GOP формата : Variable
Продолжительность : 17 м.
Вид битрейта : Переменный
Битрейт : 7046 Кбит/сек
Максимальный битрейт : 9800 Кбит/сек
Ширина : 720 пикселей
Высота : 480 пикселей
Соотношение сторон : 16:9
Частота кадров : 23,976 кадра/сек
Стандарт вещания : NTSC
Цветовое пространство : YUV
Субдискретизация насыщенности : 4:2:0
Битовая глубина : 8 бит
Тип развёртки : Прогрессивная
Порядок развёртки : 2:3 Pulldown
Метод сжатия : С потерями
Бит/(Пиксели*Кадры) : 0.850
Временной код первого кадра : 01:17:51:15
Оригинал временного кода : Group of pictures header
GOP, открыто/закрыто : Открыто
Размер потока : 897 Мбайт (88%)
Аудио #1
Идентификатор : 189 (0xBD)-128 (0x80)
Формат : AC-3
Формат/Информация : Audio Coding 3
Расширение режима : CM (complete main)
Параметр Endianness формата : Big
Режим смешивания : DVD-Video
Продолжительность : 17 м.
Вид битрейта : Постоянный
Битрейт : 192 Кбит/сек
Каналы : 2 канала
Расположение каналов : Front: L R
Частота : 48,0 КГц
Битовая глубина : 16 бит
Метод сжатия : С потерями
Задержка видео : -634 мс.
Размер потока : 24,5 Мбайт (2%)
Аудио #2
Идентификатор : 189 (0xBD)-129 (0x81)
Формат : AC-3
Формат/Информация : Audio Coding 3
Расширение режима : CM (complete main)
Параметр Endianness формата : Big
Режим смешивания : DVD-Video
Продолжительность : 17 м.
Вид битрейта : Постоянный
Битрейт : 192 Кбит/сек
Каналы : 2 канала
Расположение каналов : Front: L R
Частота : 48,0 КГц
Битовая глубина : 16 бит
Метод сжатия : С потерями
Задержка видео : -634 мс.
Размер потока : 24,5 Мбайт (2%)
Аудио #3
Идентификатор : 189 (0xBD)-130 (0x82)
Формат : AC-3
Формат/Информация : Audio Coding 3
Расширение режима : CM (complete main)
Параметр Endianness формата : Big
Режим смешивания : DVD-Video
Продолжительность : 17 м.
Вид битрейта : Постоянный
Битрейт : 448 Кбит/сек
Каналы : 6 каналов
Расположение каналов : Front: L C R, Side: L R, LFE
Частота : 48,0 КГц
Битовая глубина : 16 бит
Метод сжатия : С потерями
Задержка видео : -698 мс.
Размер потока : 57,1 Мбайт (6%)
Текст #1
Идентификатор : 189 (0xBD)-32 (0x20)
Формат : RLE
Формат/Информация : Run-length encoding
Режим смешивания : DVD-Video
Текст #2
Идентификатор : 189 (0xBD)-33 (0x21)
Формат : RLE
Формат/Информация : Run-length encoding
Режим смешивания : DVD-Video
Текст #3
Идентификатор : 189 (0xBD)-34 (0x22)
Формат : RLE
Формат/Информация : Run-length encoding
Режим смешивания : DVD-Video
Текст #4
Идентификатор : 189 (0xBD)-35 (0x23)
Формат : RLE
Формат/Информация : Run-length encoding
Режим смешивания : DVD-Video

Mediainfo- Диск 2

Общее
Полное имя: F:\Macbeth DVD9_Custom+DVD9_Criterion_#726\Диск 2\VIDEO_TS\VTS_02_1.VOB
Формат : MPEG-PS
Размер файла : 1024 Мбайт
Продолжительность : 21 м.
Режим общего битрейта : Переменный
Общий поток : 6751 Кбит/сек
Видео
Идентификатор : 224 (0xE0)
Формат : MPEG Video
Версия формата : Version 2
Профиль формата : Main@Main
Параметр BVOP формата : Да
Параметр матрицы формата : Выборочная
Параметр GOP формата : Variable
Продолжительность : 21 м.
Вид битрейта : Переменный
Битрейт : 6425 Кбит/сек
Максимальный битрейт : 9800 Кбит/сек
Ширина : 720 пикселей
Высота : 480 пикселей
Соотношение сторон : 4:3
Частота кадров : 23,976 кадра/сек
Стандарт вещания : NTSC
Цветовое пространство : YUV
Субдискретизация насыщенности : 4:2:0
Битовая глубина : 8 бит
Тип развёртки : Прогрессивная
Порядок развёртки : 2:3 Pulldown
Метод сжатия : С потерями
Бит/(Пиксели*Кадры) : 0.775
Временной код первого кадра : 01:00:00:00
Оригинал временного кода : Group of pictures header
Размер потока : 974 Мбайт (95%)
Аудио
Идентификатор : 189 (0xBD)-128 (0x80)
Формат : AC-3
Формат/Информация : Audio Coding 3
Расширение режима : CM (complete main)
Параметр Endianness формата : Big
Режим смешивания : DVD-Video
Продолжительность : 21 м.
Вид битрейта : Постоянный
Битрейт : 192 Кбит/сек
Каналы : 1 канал
Расположение каналов : Front: C
Частота : 48,0 КГц
Битовая глубина : 16 бит
Метод сжатия : С потерями
Размер потока : 29,1 Мбайт (3%)

Скриншоты меню-Диск 1

Скриншоты фильма-Диск 1

Скриншоты доп. материалов-Диск 1

Скриншоты меню-Диск 2

Скриншоты доп. материалов-Диск 2



[teatrix.ru].t7136.torrent 
Торрент: Зарегистрирован [ 2015-10-11 11:22 ] · 37865A34319737431C1705CAEDB7E8ED906F5EBF

Скачать .torrent

Скачать

80 KB

Статус: проверено
Скачан: 0 раз
Размер: 15.12 GB
terms.php



Быстрый ответ

Имя:

      
Для отправки сообщений необходимо включить JavaScript
Показать сообщения:    

Текущее время: 07-Дек 13:39

Часовой пояс: UTC + 3


Вы можете начинать темы
Вы можете отвечать на сообщения
Вы не можете редактировать свои сообщения
Вы не можете удалять свои сообщения
Вы не можете голосовать в опросах
Вы не можете прикреплять файлы к сообщениям
Вы можете скачивать файлы