Рожденный убивать / Koroshi no rakuin / Branded to Kill (Сейджун Сузуки / Seijun Suzuki) [1967, Япония, Боевик, Драма, Криминал, DVD9 (Custom)] VO + Sub Eng, Rus + Original Jap / Criterion Collection#38


Статистика раздачи [Обновить пиров]
Размер:  7.57 GB   |    Зарегистрирован:  1 год 1 месяц   |    Скачан:  0 раз

Полного источника не было: Никогда

 
   
 
 
 

[Цитировать]

Рожденный убивать / Koroshi no rakuin / Branded to Kill / Criterion Collection#38
Страна:Япония
Студия:Nikkatsu Corporation.
Жанр:Боевик, Драма, КриминалГод выпуска:1967
Продолжительность:01:31:14
Производитель:The Criterion Collection #38
Перевод:Одноголосый закадровый
Cубтитры:Английские, Русские
Оригинальная аудиодорожка:Японский
Премьера (мир):15.06.1967
Режиссер:Сейджун Сузуки / Seijun SuzukiВ ролях:Джо Шишидо, Кодзи Намбара, Исао Тамагава, Энн Мари, Марико Огава, Хироши Минами, Иваэ Арай, Хироши Чо, Франц Грубер, Акира Хисамацу
Описание:В фильме «Рожденный убивать» герой боевиков Джо Шишидо играет наёмного убийцу Горо Ханаду. В списке японских киллеров он занимает третье место, что его вполне устраивает. У него вдоволь денег, роскошная квартира, красавица-жена и странная страсть к запаху кипящего риса. Но встреча с девушкой-индианкой, похожей на наваждение, ставит всё с ног на голову. Это его последний заказ, и именно он не только вовлекает героя в конфликт с собственной женой, но и заставляет иметь дело с киллером номер один. Картина стала последним фильмом Сейджун Сузуки, который на основе ничем не примечательного сценария сумел создать настоящий психоделический шедевр.
Доп. информация:Исходник найден в сети.Одноголосый закадровый и русские субтитрыРеавторинг Нордер.Огромное Спасибо Всем, без чьей помощи этот релиз не состоялся бы!Сценарий:Мицутоси Исигами, Hachiro Guryu, Такео КимураПродюсер:Канео Иваи, Takiko MizunoeОператор:Kazue NagatsukaКомпозитор:Наозуми ЯмамотоХудожник:Sukezo KawaharaМонтаж:Муцуо Тандзи

Рецензия

Софт

PGCDemux (извлечение).
BeSweet, Sony Vegas 9 (звук).
DVD-lab PRO 2, Subtitle Workshop (субтитры).
MuxMan (сборка). DvdReMakePro (финал).

Бонусы:(Без перевода)

-Video piece featuring new interviews with director Seijun Suzuki and assistant director Masami Kuzuu
-Interview with Suzuki from 1997
-New interview with actor Joe Shishido
-Trailer
-New and improved English subtitle translation
-PLUS: A booklet featuring a new essay by critic and historian Tony Rayns
-New cover by Eric Skillman
Меню:Английский, анимированное, озвученное.Сэмпл:https://www.sendspace.com/file/bqzu37
Тип релиза:DVD9 (Custom)
Контейнер:DVD-Video
Видео:NTSC 16:9 (720x480) VBR, Auto Letterboxed, 8025 Кбит/сек, 23,976 кадра/сек
Аудио 1:Русский:AC3, 2 ch, 48.0 KHz, 192 Кбит/сек / Одноголосый закадровыйАудио 2:Японский:AC3, 1 ch, 48.0 KHz, 384 Кбит/сек / Оригинал
Формат субтитров:prerendered (DVD/IDX+SUB)

Dvd Info

Title: Branded to kill DVD-9_Custom_Criterion#38
Size: 7.57 Gb ( 7 942 138,00 KBytes ) - DVD-9
Enabled regions: 1, 2, 3, 4, 5, 6, 7, 8
VTS_01 :
Play Length: 00:00:00
Video: NTSC 16:9 (720x480) VBR, Auto Letterboxed
VTS_02 :
Play Length: 00:11:01
Video: NTSC 16:9 (720x480) VBR, Auto Letterboxed
Audio:
Japanese, AC3, 1/0 (C) ch, 192 kbps, Delay 0 mSec
Subtitles:
English
VTS_03 :
Play Length: 01:31:14
Video: NTSC 16:9 (720x480) VBR, Auto Letterboxed
Audio:
Russian, AC3, 2/0 (L,R) ch, 192 kbps, Delay 0 mSec
Japanese, AC3, 1/0 (C) ch, 384 kbps, Delay 0 mSec
Subtitles:
English
Russian
VTS_04 :
Play Length: 00:00:20
Video: NTSC 16:9 (720x480) VBR, Auto Pan&Scan
VTS_05 :
Play Length: 00:03:09
Video: NTSC 16:9 (720x480) VBR, Auto Letterboxed
Audio:
Japanese, AC3, 1/0 (C) ch, 192 kbps, Delay 0 mSec
Subtitles:
English
VTS_06 :
Play Length: 00:12:11
Video: NTSC 16:9 (720x480) VBR, Auto Letterboxed
Audio:
Japanese, AC3, 1/0 (C) ch, 192 kbps, Delay 0 mSec
Subtitles:
English
VTS_07 :
Play Length: 00:14:06
Video: NTSC 4:3 (720x480) VBR
Audio:
Japanese, AC3, 1/0 (C) ch, 192 kbps, Delay 0 mSec
VTS_08 :
Play Length: 00:00:00
Video: NTSC 4:3 (720x480) VBR

Mediainfo

Общее
Полное имя: F:\Branded to kill DVD-9_Custom_Criterion#38\VIDEO_TS\VTS_03_2.VOB
Формат : MPEG-PS
Размер файла : 1024 Мбайт
Продолжительность : 16 м.
Режим общего битрейта : Переменный
Общий поток : 8776 Кбит/сек
Видео
Идентификатор : 224 (0xE0)
Формат : MPEG Video
Версия формата : Version 2
Профиль формата : Main@Main
Параметр BVOP формата : Да
Параметр матрицы формата : Выборочная
Параметр GOP формата : Variable
Продолжительность : 16 м.
Вид битрейта : Переменный
Битрейт : 8025 Кбит/сек
Максимальный битрейт : 9800 Кбит/сек
Ширина : 720 пикселей
Высота : 480 пикселей
Соотношение сторон : 16:9
Частота кадров : 23,976 кадра/сек
Стандарт вещания : NTSC
Цветовое пространство : YUV
Субдискретизация насыщенности : 4:2:0
Битовая глубина : 8 бит
Тип развёртки : Прогрессивная
Порядок развёртки : 2:3 Pulldown
Метод сжатия : С потерями
Бит/(Пиксели*Кадры) : 0.969
Временной код первого кадра : 01:16:16:02
Оригинал временного кода : Group of pictures header
Размер потока : 936 Мбайт (91%)
Аудио #1
Идентификатор : 189 (0xBD)-128 (0x80)
Формат : AC-3
Формат/Информация : Audio Coding 3
Расширение режима : CM (complete main)
Параметр Endianness формата : Big
Режим смешивания : DVD-Video
Продолжительность : 16 м.
Вид битрейта : Постоянный
Битрейт : 192 Кбит/сек
Каналы : 2 канала
Расположение каналов : Front: L R
Частота : 48,0 КГц
Битовая глубина : 16 бит
Метод сжатия : С потерями
Задержка видео : -723 мс.
Размер потока : 22,4 Мбайт (2%)
Аудио #2
Идентификатор : 189 (0xBD)-129 (0x81)
Формат : AC-3
Формат/Информация : Audio Coding 3
Расширение режима : CM (complete main)
Параметр Endianness формата : Big
Режим смешивания : DVD-Video
Продолжительность : 16 м.
Вид битрейта : Постоянный
Битрейт : 384 Кбит/сек
Каналы : 1 канал
Расположение каналов : Front: C
Частота : 48,0 КГц
Битовая глубина : 16 бит
Метод сжатия : С потерями
Задержка видео : -819 мс.
Размер потока : 44,8 Мбайт (4%)
Текст #1
Идентификатор : 189 (0xBD)-32 (0x20)
Формат : RLE
Формат/Информация : Run-length encoding
Режим смешивания : DVD-Video
Текст #2
Идентификатор : 189 (0xBD)-33 (0x21)
Формат : RLE
Формат/Информация : Run-length encoding
Режим смешивания : DVD-Video
Текст #3
Идентификатор : 189 (0xBD)-34 (0x22)
Формат : RLE
Формат/Информация : Run-length encoding
Режим смешивания : DVD-Video

Скриншоты меню

Скриншоты

Скриншоты доп. материалов



[teatrix.ru].t7139.torrent 
Торрент: Зарегистрирован [ 2015-10-11 11:22 ] · FEBED88AFABB46A4E5669F2BBD3B9EF491A6AD68

Скачать .torrent

Скачать

40 KB

Статус: проверено
Скачан: 0 раз
Размер: 7.57 GB
terms.php



Быстрый ответ

Имя:

      
Для отправки сообщений необходимо включить JavaScript
Показать сообщения:    

Текущее время: 09-Дек 14:42

Часовой пояс: UTC + 3


Вы можете начинать темы
Вы можете отвечать на сообщения
Вы не можете редактировать свои сообщения
Вы не можете удалять свои сообщения
Вы не можете голосовать в опросах
Вы не можете прикреплять файлы к сообщениям
Вы можете скачивать файлы