Танцующая в темноте / Dancer in the Dark (Ларс Фон Триер / Lars von Trier) [2000, Дания, Мюзикл, Драма, DVD9 (Custom)] Dub + DVO + VO + Sub Eng, Rus, Original Eng / NEW LINE HOME ENTERTAINMENT


Статистика раздачи [Обновить пиров]
Размер:  7.76 GB   |    Зарегистрирован:  1 год 1 месяц   |    Скачан:  0 раз

Полного источника не было: Никогда

 
   
 
 
 

[Цитировать]

Танцующая в темноте / Dancer in the Dark / NEW LINE HOME ENTERTAINMENT«In a world of shadows, she found the light of life»
Страна:Дания, Швеция, США, Аргентина, Великобритания, Германия, Исландия, Испания, Италия, Нидерланды, Норвегия, Финляндия, Франция
Студия:Angel Films, arte France Cinema, ARTE LLC, Blind Spot Pictures Oy, Canal+ [fr], Cinematograph A/S, Constantin Film Produktion GmbH, Danmarks Radio (DR), Film i Vast, Filmek A/S, FilmFour, Fine Line Features, France 3 Cinema, Lantia Cinema & Audiovisivi, Liberator Productions, Memfis Film, Pain Unlimited GmbH Filmproduktion, SVT Drama, The Icelandic Film Corporation, Trust Film Svenska, TV 1000, Vrijzinnig Protestantse Radio Omroep (VPRO), Westdeutscher Rundfunk (WDR), What Else? B.V., Yleisradio (YLE), Zentropa Entertainments.
Жанр:Мюзикл, Драма, КриминалГод выпуска:2000
Продолжительность:02:20:38
Производитель:NEW LINE HOME ENTERTAINMENT
Перевод 1:Профессиональный (дублированный)Перевод 2:Профессиональный (двухголосый закадровый) ТВ1000Перевод 3:Одноголосый закадровый
Cубтитры:Английские, Русские
Оригинальная аудиодорожка:Английский
Премьера (мир):17.05.2000
Режиссер:Ларс Фон Триер / Lars von TrierВ ролях:Бьорк — Сельма Жескова
Катрин Денёв — Кэти (Квальда)
Дэвид Морс — Билл Хьюстон
Петер Стормаре — Джефф
Кара Сеймур (англ.) — Линда Хьюстон
Шивон Фэллон — Бренда
Джоэл Грей — Олдрич Новый (англ.)
Владица Костич — Джин
Жан-Марк Барр — Норман
Винсент Патерсон (англ.) — Сэмюэль
Стеллан Скарсгард — Окулист
Удо Кир — Доктор Покорный
Желько Иванек — Прокурор
Йенс Альбинус — Морти
Майкл Флессас — Сердитый мужчина в кинотеатре
Описание:Это великое кино уже вписано в историю мировой культуры. Им восхищаются, ругают, с ним сравнивают и противопоставляют ему... Верно одно - ни один другой фильм за последнее десятилетие не вызвал такой бури эмоций на планете. Можно пересказать сюжет, но это ничего не скажет Вам о фильме. Как только Вы сядете перед экраном, магическое пространство Ларса фон Триера тут же втянет Вас в свою реальность, и еще долго не отпустит, и будет держать ознобом. Впечатление можно передать одним словом - потрясение. Великий режиссер Триер,великий оператор Робби Мюллер, великая и неповторимая Бьорк...
Доп. информация:Исходник найден в сети.Профессиональный (дублированный) и русские субтитрыПрофессиональный (двухголосый закадровый) ТВ1000Одноголосый (закадровый) взят из раздачи close.to.uВ профессиональном (дублированном), профессиональном (двухголосом закадровом) и русских субтитрахесть непереведенные две фразы (01:04:37-01:04:47).Из за превышения битрейта дорожка English (DTS, 6 ch) удалена.Реавторинг Нордер.Огромное Спасибо Всем, без чьей помощи этот релиз не состоялся бы!Сценарий:Ларс фон ТриерПродюсер:Вибеке Винделов, Мальте Форселл, Фридрик Тоур ФридрикссонОператор:Робби МюллерКомпозитор:БьоркХудожник:Карл Юлиуссон, Питер Грант, Манон РасмуссенМонтаж:Франсуа Гедижье, Молли Марлен Стенсгаард

Знаете ли вы, что

Награды и номинации


Рецензия

Софт

PGCDemux (извлечение).
BeSweet, Sony Vegas 9 (звук).
DVD-lab PRO 2, Subtitle Workshop (субтитры).
MuxMan (сборка). DvdReMakePro (финал).

Бонусы:(Без перевода)

- Audio Commentary by Writer/Director Lars Von Trier, Producer Vibeke Windelov, Technical Supervisor Peter Hjorth and Artist Per Kirkeby
- Audio commentary by Choreographer Vincent Paterson
- "100 Cameras: Capturing Lars Von Trier's Vision" -featurette (14 min)
- "Choreography: Creating Vincent Paterson's Dance Sequences" -featurette (24 min)
- Selma's Music: Direct Song by Song Access into the Film (allows possibility to "Play All" and includes "Overture")
- Alternate Scenes
- Original Theatrical Trailer
- Cast and Crew Filmographies
Меню:Английский, статичное, неозвученное.Сэмпл:https://www.sendspace.com/file/0c6ivh
Тип релиза:DVD9 (Custom)
Контейнер:DVD-Video
Видео:NTSC 16:9 (720x480) VBR, Auto Letterboxed, 4056 Кбит/сек, 29,970 кадров/сек
Аудио 1:Английский:AC3, 6 ch, 48.0 KHz, 448 Кбит/секАудио 2:Русский:AC3, 6 ch, 48.0 KHz, 448 Кбит/сек / Профессиональный (дублированный)
Аудио 3:Английский:AC3, 2 ch, 48.0 KHz, 192 Кбит/секАудио 4:Английский:AC3, 2 ch, 48.0 KHz, 192 Кбит/сек / Комментарий Lars Von Trier, Vibeke Windelov, Peter Hjorth, Per KirkebyАудио 5:Английский:AC3, 2 ch, 48.0 KHz, 192 Кбит/сек / Комментарий Vincent PatersonАудио 6:Русский:AC3, 2 ch, 48.0 KHz, 192 Кбит/сек / Профессиональный (двухголосый закадровый) ТВ1000Аудио 7:Русский:AC3, 2 ch, 48.0 KHz, 192 Кбит/сек / Одноголосый закадровыйФормат субтитров:prerendered (DVD/IDX+SUB)

Dvd Info

Title: Танцующая в темноте DVD-9_Custom
Size: 7.76 Gb ( 8 131 850,00 KBytes ) - DVD-9
Enabled regions: 1, 2, 3, 4, 5, 6, 7, 8
VTS_01 :
Play Length: 02:20:38+{00:03:31}+{00:04:08}+{00:05:31}+{00:07:07}+{00:01:59}+{00:03:26}+{00:02:33}+{00:02:26}+{00:04:29}+{00:00:00}+{00:35:12}
Video: NTSC 16:9 (720x480) VBR, Auto Letterboxed
Audio:
English, AC3, 3/2 (L,C,R,SL,SR)+LFE ch, 448 kbps, Delay 0 mSec
Russian, AC3, 3/2 (L,C,R,SL,SR)+LFE ch, 448 kbps, Delay 0 mSec
English, AC3, 2/0 (L,R) ch, 192 kbps, Delay 0 mSec
English, AC3, 2/0 (L,R) ch, 192 kbps, Delay 0 mSec
English, AC3, 2/0 (L,R) ch, 192 kbps, Delay 0 mSec
Russian, AC3, 2/0 (L,R) ch, 192 kbps, Delay 0 mSec
Russian, AC3, 2/0 (L,R) ch, 192 kbps, Delay 0 mSec
Subtitles:
English
Russian
VTS_02 :
Play Length: 00:02:34
Video: NTSC 16:9 (720x480) VBR, Auto Letterboxed
Audio:
English, AC3, 3/2 (L,C,R,SL,SR)+LFE ch, 448 kbps, Delay 0 mSec
VTS_03 :
Play Length: 00:04:26+00:04:42+00:04:05
Video: NTSC 16:9 (720x480) VBR, Auto Letterboxed
Audio:
English, AC3, 2/0 (L,R) ch, 192 kbps, Delay 0 mSec
VTS_04 :
Play Length: 00:14:04+00:24:00
Video: NTSC 16:9 (720x480) VBR, Auto Letterboxed
Audio:
English, AC3, 2/0 (L,R) ch, 192 kbps, Delay 0 mSec

Mediainfo

Общее
Полное имя: F:\Танцующая в темноте DVD-9_Custom\VIDEO_TS\VTS_01_1.VOB
Формат : MPEG-PS
Размер файла : 1024 Мбайт
Продолжительность : 23 м.
Режим общего битрейта : Переменный
Общий поток : 6032 Кбит/сек
Видео
Идентификатор : 224 (0xE0)
Формат : MPEG Video
Версия формата : Version 2
Профиль формата : Main@Main
Параметр BVOP формата : Да
Параметр матрицы формата : Выборочная
Параметр GOP формата : M=3, N=15
Структура изображения : Frame
Продолжительность : 23 м.
Вид битрейта : Переменный
Битрейт : 4056 Кбит/сек
Максимальный битрейт : 9802 Кбит/сек
Ширина : 720 пикселей
Высота : 480 пикселей
Соотношение сторон : 16:9
Частота кадров : 29,970 кадров/сек
Стандарт вещания : NTSC
Цветовое пространство : YUV
Субдискретизация насыщенности : 4:2:0
Битовая глубина : 8 бит
Тип развёртки : Чересстрочная
Порядок развёртки : Верхнее поле первое
Метод сжатия : С потерями
Бит/(Пиксели*Кадры) : 0.392
Временной код первого кадра : 00:00:00;00
Оригинал временного кода : Group of pictures header
GOP, открыто/закрыто : Открыто
GOP, открыто/закрыто на первом кадре : Закрыто
Размер потока : 689 Мбайт (67%)
Аудио #1
Идентификатор : 189 (0xBD)-128 (0x80)
Формат : AC-3
Формат/Информация : Audio Coding 3
Расширение режима : CM (complete main)
Параметр Endianness формата : Big
Режим смешивания : DVD-Video
Продолжительность : 23 м.
Вид битрейта : Постоянный
Битрейт : 448 Кбит/сек
Каналы : 6 каналов
Расположение каналов : Front: L C R, Side: L R, LFE
Частота : 48,0 КГц
Битовая глубина : 16 бит
Метод сжатия : С потерями
Размер потока : 76,0 Мбайт (7%)
Аудио #2
Идентификатор : 189 (0xBD)-129 (0x81)
Формат : AC-3
Формат/Информация : Audio Coding 3
Расширение режима : CM (complete main)
Параметр Endianness формата : Big
Режим смешивания : DVD-Video
Продолжительность : 23 м.
Вид битрейта : Постоянный
Битрейт : 448 Кбит/сек
Каналы : 6 каналов
Расположение каналов : Front: L C R, Side: L R, LFE
Частота : 48,0 КГц
Битовая глубина : 16 бит
Метод сжатия : С потерями
Размер потока : 76,0 Мбайт (7%)
Аудио #3
Идентификатор : 189 (0xBD)-130 (0x82)
Формат : AC-3
Формат/Информация : Audio Coding 3
Профиль формата : Dolby Digital
Расширение режима : CM (complete main)
Параметр Endianness формата : Big
Режим смешивания : DVD-Video
Продолжительность : 23 м.
Вид битрейта : Постоянный
Битрейт : 192 Кбит/сек
Каналы : 2 канала
Расположение каналов : Front: L R
Частота : 48,0 КГц
Битовая глубина : 16 бит
Метод сжатия : С потерями
Размер потока : 32,6 Мбайт (3%)
Аудио #4
Идентификатор : 189 (0xBD)-131 (0x83)
Формат : AC-3
Формат/Информация : Audio Coding 3
Расширение режима : CM (complete main)
Параметр Endianness формата : Big
Режим смешивания : DVD-Video
Продолжительность : 23 м.
Вид битрейта : Постоянный
Битрейт : 192 Кбит/сек
Каналы : 2 канала
Расположение каналов : Front: L R
Частота : 48,0 КГц
Битовая глубина : 16 бит
Метод сжатия : С потерями
Размер потока : 32,6 Мбайт (3%)
Аудио #5
Идентификатор : 189 (0xBD)-132 (0x84)
Формат : AC-3
Формат/Информация : Audio Coding 3
Профиль формата : Dolby Digital
Расширение режима : CM (complete main)
Параметр Endianness формата : Big
Режим смешивания : DVD-Video
Продолжительность : 23 м.
Вид битрейта : Постоянный
Битрейт : 192 Кбит/сек
Каналы : 2 канала
Расположение каналов : Front: L R
Частота : 48,0 КГц
Битовая глубина : 16 бит
Метод сжатия : С потерями
Размер потока : 32,6 Мбайт (3%)
Аудио #6
Идентификатор : 189 (0xBD)-133 (0x85)
Формат : AC-3
Формат/Информация : Audio Coding 3
Расширение режима : CM (complete main)
Параметр Endianness формата : Big
Режим смешивания : DVD-Video
Продолжительность : 23 м.
Вид битрейта : Постоянный
Битрейт : 192 Кбит/сек
Каналы : 2 канала
Расположение каналов : Front: L R
Частота : 48,0 КГц
Битовая глубина : 16 бит
Метод сжатия : С потерями
Размер потока : 32,6 Мбайт (3%)
Аудио #7
Идентификатор : 189 (0xBD)-134 (0x86)
Формат : AC-3
Формат/Информация : Audio Coding 3
Расширение режима : CM (complete main)
Параметр Endianness формата : Big
Режим смешивания : DVD-Video
Продолжительность : 23 м.
Вид битрейта : Постоянный
Битрейт : 192 Кбит/сек
Каналы : 2 канала
Расположение каналов : Front: L R
Частота : 48,0 КГц
Битовая глубина : 16 бит
Метод сжатия : С потерями
Размер потока : 32,6 Мбайт (3%)
Текст #1
Идентификатор : 224 (0xE0)-CC3
Формат : EIA-608
Режим смешивания, доп. информация : Muxed in Video #1
Вид битрейта : Постоянный
Размер потока : 0,00 байт (0%)
Текст #2
Идентификатор : 189 (0xBD)-32 (0x20)
Формат : RLE
Формат/Информация : Run-length encoding
Режим смешивания : DVD-Video
Текст #3
Идентификатор : 189 (0xBD)-33 (0x21)
Формат : RLE
Формат/Информация : Run-length encoding
Режим смешивания : DVD-Video

Скриншоты меню


Скриншоты

Скриншоты доп. материалов





[teatrix.ru].t7140.torrent 
Торрент: Зарегистрирован [ 2015-10-11 11:22 ] · 408B2E1872DB7FD0D672DBD5C7216BCB3EC352A9

Скачать .torrent

Скачать

41 KB

Статус: проверено
Скачан: 0 раз
Размер: 7.76 GB
terms.php



Быстрый ответ

Имя:

      
Для отправки сообщений необходимо включить JavaScript
Показать сообщения:    

Текущее время: 11-Дек 01:28

Часовой пояс: UTC + 3


Вы можете начинать темы
Вы можете отвечать на сообщения
Вы не можете редактировать свои сообщения
Вы не можете удалять свои сообщения
Вы не можете голосовать в опросах
Вы не можете прикреплять файлы к сообщениям
Вы можете скачивать файлы