Хвост, вампир / Неотснятая плёнка, вампир / Cuadecuc, vampir (Пере Портабелья / Pere Portabella, Хесус (Джесс) Франко / Jesus Franco) [1972, Испания, готика, эксперимент, DVD5 (Custom)] + Sub Rus,Esp,Fra


Статистика раздачи [Обновить пиров]
Размер:  3.53 GB   |    Зарегистрирован:  1 год 1 месяц   |    Скачан:  0 раз

Полного источника не было: Никогда

 
   
 
 
 

[Цитировать]

Хвост, вампир / Неотснятая плёнка, вампир / Cuadecuc, vampir
Страна: Испания
Жанр: готика, эксперимент
Год выпуска: 1972
Продолжительность: 01:06:15
Перевод: Субтитры
Cубтитры: русские, испанские, французсие
Оригинальная аудиодорожка: нет
Режиссер: Пере Портабелья / Pere Portabella, Хесус (Джесс) Франко / Jesus Franco
В ролях: Кристофер Ли, Герберт Лом, Миранда Соледад, Джек Тэйлор
Описание: "Cuadecuc, vampir" был отснят на съёмочной площадке фильма "Граф Дракула" Хесуса Франко . Чёрно-белая, ярко контрастная лента под саундтрек из шумов чередует сцены из картонного фильма Франко и кадры со съёмочной площадки (рабочие накладывают искусственную паутину, актёры перемигиваются и шутят), превращаясь в странное и мало на что похожее кино: это одновременно и фильм-эссе, и оммаж вампирской киноклассике, и политическая аллегория.Cuadecuc - каталонское слово, не имеющее адекватных аналогов в русском языке. Буквально оно означает "хвост", на киношном жаргоне - неэкспонированная плёнка, оставшаяся после съёмок.
При пересборе двд были использованы программы:
PgcDemux - разделение компонентов диска на файлы
Muxman - мультиплексирование и авторинг DVD
VobBlanker - реавторинг DVD

Скрин завершения проекта

Бонусы: Фильмографии, биографии.
Сэмпл: http://sendfile.su/1114972
Тип релиза: DVD5 (Custom)
Контейнер: DVD-Video
Видео: PAL 4:3 (720x576) VBR
Аудио: English (Dolby AC3, 192 Кбит/сек, 2 ch)
Формат субтитров: prerendered (DVD/IDX+SUB)

DVDInfo

Size: 3.53 Gb ( 3 700 612 KBytes ) - DVD-5
Enabled regions: 1, 2, 3, 4, 5, 6, 7, 8
VTS_01 :
Play Length: 00:00:03
Video: PAL 4:3 (720x576) VBR
VTS_02 :
Play Length: 00:00:03
Video: PAL 4:3 (720x576) VBR
VTS_03 :
Play Length: 00:00:03
Video: PAL 4:3 (720x576) VBR
VTS_04 :
Play Length: 01:06:15
Video: PAL 4:3 (720x576) VBR
Audio:
English (Dolby AC3, 2 ch)
Subtitles:
Russian
Espanol
Francais
Menu Video:
PAL 4:3 (720x576) VBR
Menu Subtitles:
Not specified
Menu Espanol Language Unit :
Root Menu
Audio Menu

MediaInfo

Общее
Полное имя : F:\Cuadecuc, vampir_1971\VIDEO_TS\VTS_04_1.VOB
Формат : MPEG-PS
Размер файла : 1024 Мбайт
Продолжительность : 19 м.
Режим общего битрейта : Переменный
Общий поток : 7227 Кбит/сек
Видео
Идентификатор : 224 (0xE0)
Формат : MPEG Video
Версия формата : Version 2
Профиль формата : Main@Main
Параметр BVOP формата : Да
Параметр матрицы формата : Выборочная
Параметр GOP формата : M=3, N=12
Продолжительность : 19 м.
Вид битрейта : Переменный
Битрейт : 6892 Кбит/сек
Максимальный битрейт : 8500 Кбит/сек
Ширина : 720 пикселей
Высота : 576 пикселей
Соотношение сторон : 4:3
Частота кадров : 25,000 кадров/сек
Стандарт вещания : PAL
Цветовое пространство : YUV
Субдискретизация насыщенности : 4:2:0
Битовая глубина : 8 бит
Тип развёртки : Чересстрочная
Порядок развёртки : Верхнее поле первое
Метод сжатия : С потерями
Бит/(Пиксели*Кадры) : 0.665
Размер потока : 976 Мбайт (95%)
Аудио
Идентификатор : 189 (0xBD)-128 (0x80)
Формат : AC-3
Формат/Информация : Audio Coding 3
Расширение режима : CM (complete main)
Параметр Endianness формата : Big
Режим смешивания : DVD-Video
Продолжительность : 19 м.
Вид битрейта : Постоянный
Битрейт : 192 Кбит/сек
Каналы : 2 канала
Расположение каналов : Front: L R
Частота : 48,0 КГц
Битовая глубина : 16 бит
Метод сжатия : С потерями
Задержка видео : -80 мс.
Размер потока : 27,2 Мбайт (3%)
Меню

Обложка

Скриншоты меню

[teatrix.ru].t7144.torrent 
Торрент: Зарегистрирован [ 2015-10-11 11:22 ] · F774CE827311216D02FABB89B05565558E885A8C

Скачать .torrent

Скачать

19 KB

Статус: проверено
Скачан: 0 раз
Размер: 3.53 GB
terms.php



Быстрый ответ

Имя:

      
Для отправки сообщений необходимо включить JavaScript
Показать сообщения:    

Текущее время: 03-Дек 14:39

Часовой пояс: UTC + 3


Вы можете начинать темы
Вы можете отвечать на сообщения
Вы не можете редактировать свои сообщения
Вы не можете удалять свои сообщения
Вы не можете голосовать в опросах
Вы не можете прикреплять файлы к сообщениям
Вы можете скачивать файлы