Фильм о любви / Szerelmesfilm / Lovefilm (Иштван Сабо / Istvan Szabo) [1970, Венгрия, Драма, DVD9 (Custom)] MVO (RUSCICO) + Sub Eng, Rus + Original Mag / MNFA


Статистика раздачи [Обновить пиров]
Размер:  7.14 GB   |    Зарегистрирован:  1 год 1 месяц   |    Скачан:  0 раз

Полного источника не было: Никогда

 
   
 
 
 

[Цитировать]

Фильм о любви / Szerelmesfilm / Lovefilm / MNFA
Страна:Венгрия
Студия:Mafilm.
Жанр:ДрамаГод выпуска:1970
Продолжительность:01:59:00
Производитель:MNFA
Перевод:Профессиональный (многоголосый закадровый)RUSCICOCубтитры:Английские, РусскиеОригинальная аудиодорожка:Венгерский
Премьера (мир):8.10.1970
Режиссер:Иштван Сабо / Istvan SzaboВ ролях:Юдит Халас, Андраш Балинт, Эдит Келемен, Андраш Шамосфалви, Рита Бекеш, Eva Berenyi, Мария Бага, Эржебет Миалковски, Erika Kunszenti, Петер Хусти
Описание:В поэтическом, полном изобретательности и переменчивых настроений «Фильме о любви» Иштван Сабо продолжает рассказ о самых важных темах своей юности, начатых в «Отце». Сходные по темам, по интонации, по киноязыку эти фильмы, основанные большей частью на автобиографических сюжетах, явились в своем роде духовной кардиограммой поколения, к которому принадлежит Сабо.
Доп. информация:Исходник найден в сети.Профессиональный (многоголосый закадровый) RUSCICO и русские субтитрыРусский MVO изначально дутый, переведен в AC3, 2 ch, 48.0 KHz, 192 Кбит/сек .Реавторинг Нордер.Огромное Спасибо Всем, без чьей помощи этот релиз не состоялся бы!Сценарий:Иштван Сабо
Оператор:Йожеф ЛёринцКомпозитор:Янош ГондаХудожник:Тамаш Вайер, Эржебет МиалковскиМонтаж:Дьёрдь Шиво
Сабо, Иштван-https://ru.wikipedia.org/wiki/Сабо,_Иштван Фильм-https://en.wikipedia.org/wiki/Lovefilm_(film)Награды и номинации">

Это интересноСабо, Иштван-https://ru.wikipedia.org/wiki/Сабо,_Иштван Фильм-https://en.wikipedia.org/wiki/Lovefilm_(film)Награды и номинации


Софт

PGCDemux (извлечение).
BeSweet, Sony Vegas 9 (звук).
DVD-lab PRO 2, Subtitle Workshop (субтитры).
MuxMan (сборка). DvdReMakePro (финал).

Бонусы:(Без перевода)

Меню:Венгерский / Английский, анимированное, озвученное.Сэмпл:https://www.sendspace.com/file/vc55x2
Тип релиза:DVD9 (Custom)
Контейнер:DVD-Video
Видео:PAL 4:3 (720x576) VBR, 6255 Кбит/сек, 25,000 кадров/сек
Аудио 1:Русский:AC3, 2 ch, 48.0 KHz, 192 Кбит/сек / Профессиональный (многоголосый закадровый) RUSCICOАудио 2:Венгерский:AC3, 2 ch, 48.0 KHz, 192 Кбит/сек / (Оригинал)Формат субтитров:prerendered (DVD/IDX+SUB)

Dvd Info

Title: Фильм о любви DVD-9_Custom
Size: 7.14 Gb ( 7 490 154,00 KBytes ) - DVD-9
Enabled regions: 1, 2, 3, 4, 5, 6, 7, 8
VTS_01 :
Play Length: 00:10:09+00:15:20+00:03:05+01:59:00
Video: PAL 4:3 (720x576) VBR
Audio:
Russian, AC3, 2/0 (L,R) ch, 192 kbps, Delay 0 mSec
Magyar,
Subtitles:
English
Russian

Mediainfo

Общее
Полное имя: F:\Фильм о любви DVD-9_Custom\VIDEO_TS\VTS_01_3.VOB
Формат : MPEG-PS
Размер файла : 1024 Мбайт
Продолжительность : 21 м.
Режим общего битрейта : Переменный
Общий поток : 6773 Кбит/сек
Видео
Идентификатор : 224 (0xE0)
Формат : MPEG Video
Версия формата : Version 2
Профиль формата : Main@Main
Параметр BVOP формата : Да
Параметр матрицы формата : По умолчанию
Параметр GOP формата : M=3, N=13
Продолжительность : 21 м.
Вид битрейта : Переменный
Битрейт : 6255 Кбит/сек
Максимальный битрейт : 8200 Кбит/сек
Ширина : 720 пикселей
Высота : 576 пикселей
Соотношение сторон : 4:3
Частота кадров : 25,000 кадров/сек
Стандарт вещания : PAL
Цветовое пространство : YUV
Субдискретизация насыщенности : 4:2:0
Битовая глубина : 8 бит
Тип развёртки : Чересстрочная
Порядок развёртки : Верхнее поле первое
Метод сжатия : С потерями
Бит/(Пиксели*Кадры) : 0.603
Временной код первого кадра : 01:10:59:22
Оригинал временного кода : Group of pictures header
Размер потока : 946 Мбайт (92%)
Основные цвета : BT.601 PAL
Характеристики трансфера : BT.470 System B, BT.470 System G
Коэффициенты матрицы : BT.601
Аудио #1
Идентификатор : 189 (0xBD)-128 (0x80)
Формат : AC-3
Формат/Информация : Audio Coding 3
Расширение режима : CM (complete main)
Параметр Endianness формата : Big
Режим смешивания : DVD-Video
Продолжительность : 21 м.
Вид битрейта : Постоянный
Битрейт : 192 Кбит/сек
Каналы : 2 канала
Расположение каналов : Front: L R
Частота : 48,0 КГц
Битовая глубина : 16 бит
Метод сжатия : С потерями
Задержка видео : -296 мс.
Размер потока : 29,0 Мбайт (3%)
Аудио #2
Идентификатор : 189 (0xBD)-129 (0x81)
Формат : AC-3
Формат/Информация : Audio Coding 3
Расширение режима : CM (complete main)
Параметр Endianness формата : Big
Режим смешивания : DVD-Video
Продолжительность : 21 м.
Вид битрейта : Постоянный
Битрейт : 192 Кбит/сек
Каналы : 2 канала
Расположение каналов : Front: L R
Частота : 48,0 КГц
Битовая глубина : 16 бит
Метод сжатия : С потерями
Задержка видео : -296 мс.
Размер потока : 29,0 Мбайт (3%)
Текст #1
Идентификатор : 189 (0xBD)-32 (0x20)
Формат : RLE
Формат/Информация : Run-length encoding
Режим смешивания : DVD-Video
Продолжительность : 21 м.
Задержка видео : 120 мс.
Текст #2
Идентификатор : 189 (0xBD)-34 (0x22)
Формат : RLE
Формат/Информация : Run-length encoding
Режим смешивания : DVD-Video

Скриншоты меню

Скриншоты

Скриншоты доп. материалов


Полиграфия


[teatrix.ru].t7155.torrent 
Торрент: Зарегистрирован [ 2015-10-11 11:22 ] · 783917F650DDCDDA5A7797E7FCAB85241635956D

Скачать .torrent

Скачать

37 KB

Статус: проверено
Скачан: 0 раз
Размер: 7.14 GB
terms.php



Быстрый ответ

Имя:

      
Для отправки сообщений необходимо включить JavaScript
Показать сообщения:    

Текущее время: 08-Дек 19:10

Часовой пояс: UTC + 3


Вы можете начинать темы
Вы можете отвечать на сообщения
Вы не можете редактировать свои сообщения
Вы не можете удалять свои сообщения
Вы не можете голосовать в опросах
Вы не можете прикреплять файлы к сообщениям
Вы можете скачивать файлы