12:08 к востоку от Бухареста / A fost sau n-a fost? / 12:08 East of Bucharest (Корнелиу Порумбойю / Corneliu Porumboiu) [2006, Румыния, драма, комедия, DVD9 (Custom)] [16:9 NTSC R1] MVO + Sub Eng Spa Rus + Original Rom + Commentary Eng


Статистика раздачи [Обновить пиров]
Размер:  5.82 GB   |    Зарегистрирован:  1 год 1 месяц   |    Скачан:  0 раз

Полного источника не было: Никогда

 
   
 
 
 

[Цитировать]

12:08 к востоку от Бухареста / A fost sau n-a fost? / 12:08 East of Bucharest
16:9 NTSC R1
Страна: Румыния
Студия: 42 Km Film
Жанр: драма, комедия,
Год выпуска: 2006
Продолжительность: 01:25:10
Перевод: Профессиональный (многоголосый закадровый)
Cубтитры: английские, испанские, русские
Оригинальная аудиодорожка: румынский
Режиссер: Корнелиу Порумбойю / Corneliu Porumboiu
В ролях: Мирча Андрееску, Теодор Корбан, Ион Сэпдару, Мирела Чьйоабэ, Луминица Георгиу, Кристина Чиофу, Лучиан Ифтиме, Аннемарие Кертик, Петрика Сапдару, Каталин Параскив ...
Описание: 22 декабря. 16 лет прошло после революции. В небольшом городке в Румынии все уже ждут прихода Рождества. Пенсионер Пискочи готовится провести очередное Рождество в полном одиночестве. Учитель истории Манеску пытается рассчитаться со своими долгами. А Ждреску, владелец местной телевизионной станции, похоже, совсем не заинтересован в грядущих праздниках. Для него пришло время разобраться в истории. Вместе с Манеску и Пискочи он пытается найти ответ на вопрос, на который не может ответить вот уже 16 лет: «Все-таки была у них в городке революция или нет?»
Доп. информация: Диск собран из 12'08 East of Bucharest_2006_DVD9 R1 найденного в сети. (Который на постере)
Бонусы:
Director Commentary
Original Theatrical Trailer
Tartan Video Trailers
The Death of Mr. Lazarescu
Red Road
The Page Turner
The Cave of the Yellow Dog
The Perfect Crime
Меню: Анимированное, озвученное, на английском.Меню неотредактировано, переключение звуковых дорожек и субтитров с пульта.
Фильм автоматически стартует с рус. звук. дорожкой.
- -
-

Награды


-
-A fost sau n-a fost_[12'08 East of Bucharest]_2006_DVD9 R1_Sample_.rar-
-

Точка перехода на второй слой


-
-Тип релиза: DVD9 (Custom)
Контейнер: DVD-Video
Видео: NTSC 16:9 (720x480) VBR Auto Letterboxed, ~ 8591.53 kbps avg
Аудио 1: Romanian, AC3, 3/2 (L,C,R,SL,SR)+LFE ch, 320 kbps, Delay 0 mSec
Аудио 2: Romanian, AC3, 2/0 (L,R) ch, 192 kbps, Delay 0 mSec
Аудио 3: Romanian, DTS, 3/2 (L,C,R,SL,SR), 768 kbps, Delay 0 mSec
Аудио 4: English, AC3, 2/0 (L,R) ch, 192 kbps, Delay 0 mSec - Director Commentary
Аудио 5: Russian, AC3, 3/2 (L,C,R,SL,SR)+LFE ch, 448 kbps, Delay 0 mSec
Формат субтитров: prerendered (DVD/IDX+SUB)

MediaInfo

General
Complete name : A fost sau n-a fost_[12'08 East of Bucharest]_2006_DVD9 R1\VIDEO_TS\VTS_04_2.VOB
Format : MPEG-PS
File size : 1 024 MiB
Duration : 16mn 25s
Overall bit rate mode : Variable
Overall bit rate : 8 721 Kbps
Video
ID : 224 (0xE0)
Format : MPEG Video
Format version : Version 2
Format profile : Main@Main
Format settings, BVOP : Yes
Format settings, Matrix : Custom
Format settings, GOP : M=3, N=15
Format settings, picture st : Frame
Duration : 16mn 24s
Bit rate mode : Variable
Bit rate : 6 640 Kbps
Maximum bit rate : 8 000 Kbps
Width : 720 pixels
Height : 480 pixels
Display aspect ratio : 16:9
Frame rate : 29.970 fps
Standard : NTSC
Color space : YUV
Chroma subsampling : 4:2:0
Bit depth : 8 bits
Scan type : Interlaced
Scan order : Bottom Field First
Compression mode : Lossy
Bits/(Pixel*Frame) : 0.641
Time code of first frame : 01:20:53:15
Time code source : Group of pictures header
GOP, Open/Closed : Open
Stream size : 780 MiB (76%)
Audio #1
ID : 189 (0xBD)-128 (0x80)
Format : AC-3
Format/Info : Audio Coding 3
Mode extension : CM (complete main)
Format settings, Endianness : Big
Muxing mode : DVD-Video
Duration : 16mn 24s
Bit rate mode : Constant
Bit rate : 320 Kbps
Channel(s) : 6 channels
Channel positions : Front: L C R, Side: L R, LFE
Sampling rate : 48.0 KHz
Bit depth : 16 bits
Compression mode : Lossy
Delay relative to video : -429ms
Stream size : 37.6 MiB (4%)
Audio #2
ID : 189 (0xBD)-129 (0x81)
Format : AC-3
Format/Info : Audio Coding 3
Mode extension : CM (complete main)
Format settings, Endianness : Big
Muxing mode : DVD-Video
Duration : 16mn 24s
Bit rate mode : Constant
Bit rate : 192 Kbps
Channel(s) : 2 channels
Channel positions : Front: L R
Sampling rate : 48.0 KHz
Bit depth : 16 bits
Compression mode : Lossy
Delay relative to video : -333ms
Stream size : 22.5 MiB (2%)
Audio #3
ID : 189 (0xBD)-131 (0x83)
Format : AC-3
Format/Info : Audio Coding 3
Mode extension : CM (complete main)
Format settings, Endianness : Big
Muxing mode : DVD-Video
Duration : 16mn 24s
Bit rate mode : Constant
Bit rate : 192 Kbps
Channel(s) : 2 channels
Channel positions : Front: L R
Sampling rate : 48.0 KHz
Bit depth : 16 bits
Compression mode : Lossy
Delay relative to video : -333ms
Stream size : 22.5 MiB (2%)
Audio #4
ID : 189 (0xBD)-132 (0x84)
Format : AC-3
Format/Info : Audio Coding 3
Mode extension : CM (complete main)
Format settings, Endianness : Big
Muxing mode : DVD-Video
Duration : 16mn 25s
Bit rate mode : Constant
Bit rate : 448 Kbps
Channel(s) : 6 channels
Channel positions : Front: L C R, Side: L R, LFE
Sampling rate : 48.0 KHz
Bit depth : 16 bits
Compression mode : Lossy
Delay relative to video : -461ms
Stream size : 52.6 MiB (5%)
Audio #5
ID : 189 (0xBD)-138 (0x8A)
Format : DTS
Format/Info : Digital Theater Systems
Mode : 16
Format settings, Endianness : Big
Muxing mode : DVD-Video
Duration : 16mn 25s
Bit rate mode : Constant
Bit rate : 755 Kbps
Channel(s) : 6 channels
Channel positions : Front: L C R, Side: L R, LFE
Sampling rate : 48.0 KHz
Bit depth : 16 bits
Compression mode : Lossy
Delay relative to video : -483ms
Stream size : 88.6 MiB (9%)
Text #1
ID : 189 (0xBD)-32 (0x20)
Format : RLE
Format/Info : Run-length encoding
Muxing mode : DVD-Video
Delay relative to video : 901ms
Text #2
ID : 189 (0xBD)-33 (0x21)
Format : RLE
Format/Info : Run-length encoding
Muxing mode : DVD-Video
Delay relative to video : 901ms
Text #3
ID : 189 (0xBD)-34 (0x22)
Format : RLE
Format/Info : Run-length encoding
Muxing mode : DVD-Video
Delay relative to video : 701ms
Menu

DVDInfo

Title: A fost sau n-a fost_[12'08 East of Bucharest]_2006_DVD9 R1
Size: 5.82 Gb ( 6 104 184,00 KBytes ) - DVD-9
Enabled regions: 1, 2, 3, 4, 5, 6, 7, 8
VTS_01 :
Play Length: 00:00:01
Video: NTSC 4:3 (720x480) VBR
VTS_02 :
Play Length: 00:00:03
Video: NTSC 4:3 (720x480) VBR
VTS_03 :
Play Length: 00:00:06
Video: NTSC 4:3 (720x480) VBR
VTS_04 :
Play Length: 01:25:10
Video: NTSC 16:9 (720x480) VBR, Auto Letterboxed
Audio:
Romanian, AC3, 3/2 (L,C,R,SL,SR)+LFE ch, 320 kbps, Delay 0 mSec
Romanian, AC3, 2/0 (L,R) ch, 192 kbps, Delay 0 mSec
Romanian, DTS, 3/2 (L,C,R,SL,SR), 768 kbps, Delay 0 mSec
English, AC3, 2/0 (L,R) ch, 192 kbps, Delay 0 mSec
Russian, AC3, 3/2 (L,C,R,SL,SR)+LFE ch, 448 kbps, Delay 0 mSec
Subtitles:
English
Espanol
Russian
VTS_05 :
Play Length: 00:10:15+{00:10:15}+{00:01:24}+{00:02:10}+{00:01:45}+{00:03:21}+{00:01:33}
Video: NTSC 4:3 (720x480) VBR
Audio:
English (Dolby AC3, 2 ch)
VTS_06 :
Play Length: 00:01:24
Video: NTSC 16:9 (720x480) VBR, Auto Letterboxed
Audio:
Not specified (Dolby AC3, 2 ch)
* Menus Information *
VIDEO_TS Menu
Video:
NTSC 4:3 (720x480) VBR
Auto Pan&Scan, Auto Letterboxed
English Language Unit :
Title Menu
VTS_01 Menu
Video:
NTSC 16:9 (720x480) VBR
Auto Pan&Scan
Audio:
Not specified (Dolby AC3, 2 ch)
English Language Unit :
Root Menu
Subpicture Menu
Audio Menu
Chapter (PTT) Menu
VTS_02 Menu
Video:
NTSC 4:3 (720x480) VBR
English Language Unit :
Root Menu
Subpicture Menu
Audio Menu
Chapter (PTT) Menu
VTS_03 Menu
Video:
NTSC 4:3 (720x480) VBR
English Language Unit :
Root Menu
Subpicture Menu
Audio Menu
Chapter (PTT) Menu
VTS_04 Menu
Video:
NTSC 4:3 (720x480) VBR
English Language Unit :
Root Menu
Subpicture Menu
Audio Menu
Chapter (PTT) Menu
VTS_05 Menu
Video:
NTSC 4:3 (720x480) VBR
English Language Unit :
Root Menu
Subpicture Menu
Audio Menu
Chapter (PTT) Menu
VTS_06 Menu
Video:
NTSC 4:3 (720x480) VBR
English Language Unit :
Root Menu
Subpicture Menu
Audio Menu
Chapter (PTT) Menu

П. О.

PgcDemux 1.2.0.5 - разделение компонентов диска на файлы;
BeSweetv1.5b31+BeLight 0.21 - AC3 -> Wav
Sound Forge pro 10 - Wav -> AC3
MaestroSBT-Unicode-2.6.2.1 - Создание субтитров
DVDSubEdit -- Version 1.52 - Правка (цветовых схем) субтитров
MuxMan DVD authoring Professional 1.4.4 - мультиплексирование и авторинг DVD;
DVDRemake Pro 3.6.4 - реавторинг DVD;
DVD Shrink 3.2 - Сэмпл
VLC - Скриншоты-
-
-

-
-
-BeSweet v1.5b31 by DSPguru.
--------------------------
Using azid.dll v1.9 (b922) by Midas (midas@egon.gyaloglo.hu).
Logging start : 04/14/15 , 05:44:39.
BeSweet.exe -core( -input C:\Temp\12-03\AudioFile_80.ac3 -output C:\Temp\12-03\AudioFile_80.wav -6chwav -logfile C:\Temp\12-03\AudioFile_80.log ) -azid( -c normal )
[00:00:00:000] +------- BeSweet -----
[00:00:00:000] | Input : C:\Temp\12-03\AudioFile_80.ac3
[00:00:00:000] | Output: C:\Temp\12-03\AudioFile_80.wav
[00:00:00:000] | Floating-Point Process: No
[00:00:00:000] +-------- AZID -------
[00:00:00:000] | Input Channels Mode: 3/2, Bitrate: 320kbps
[00:00:00:000] | Total Gain: 0.000dB, Compression: Normal
[00:00:00:000] | LFE levels: To LR -INF, To LFE 0.0dB
[00:00:00:000] | Center mix level: BSI
[00:00:00:000] | Surround mix level: BSI
[00:00:00:000] | Dialog normalization: No
[00:00:00:000] | Rear channels filtering: No
[00:00:00:000] | Source Sample-Rate: 48.0KHz
[00:00:00:000] +---------------------
[01:25:15:136] Conversion Completed !
[01:25:15:136] Actual Avg. Bitrate : 839kbps
[00:02:51:000]
[teatrix.ru].t7159.torrent 
Торрент: Зарегистрирован [ 2015-10-11 11:22 ] · EB9AA352573014043AC1D54BA28DF48B73ABCDAA

Скачать .torrent

Скачать

31 KB

Статус: проверено
Скачан: 0 раз
Размер: 5.82 GB
terms.php



Быстрый ответ

Имя:

      
Для отправки сообщений необходимо включить JavaScript
Показать сообщения:    

Текущее время: 05-Дек 05:30

Часовой пояс: UTC + 3


Вы можете начинать темы
Вы можете отвечать на сообщения
Вы не можете редактировать свои сообщения
Вы не можете удалять свои сообщения
Вы не можете голосовать в опросах
Вы не можете прикреплять файлы к сообщениям
Вы можете скачивать файлы