Жизнь куртизанки Охару / Saikaku ichidai onna / The Life of Oharu (Кендзи Мидзогути / Kenji Mizoguchi) [1952, Япония, Драма, DVD9 (Custom)] DVO + AVO (С. Кузнецов) + Sub Eng, Rus + Original Jap / Criterion Collection#664


Статистика раздачи [Обновить пиров]
Размер:  7.9 GB   |    Зарегистрирован:  1 год 1 месяц   |    Скачан:  0 раз

Полного источника не было: Никогда

 
   
 
 
 

[Цитировать]

Жизнь куртизанки Охару / Saikaku ichidai onna / The Life of Oharu / Criterion Collection#664
Страна:Япония
Студия:Koi Productions, Shintoho Film Distribution Committee.
Жанр:ДрамаГод выпуска:1952
Продолжительность:02:16:41
Производитель:The Criterion Collection #664
Перевод 1:Профессиональный (двухголосый закадровый) Триумф ВидеоПеревод 2:Авторский (одноголосый закадровый) С. КузнецовCубтитры:Английские, Русские
Оригинальная аудиодорожка:Японский
Премьера (мир):3.04.1952
Режиссер:Кендзи Мидзогути / Kenji MizoguchiВ ролях:Харуё Итикава[ja] — фрейлина Ивабаси
Дайсукэ Като — Дадзабуро Хисая, клиент Кохэя
Цукиэ Мацуура — мать О-Хару
Тосиро Мифунэ — Кацуносукэ
Кикуэ Мори — монахиня
Тораносукэ Огава — гонец
Акира Оидзуми — Бункэй, работник Кохэя
Садако Савамура — О-Васа, жена Кохэя
Бункэй Сиганоя — Дзихэй, работник Кохэя
Масао Симидзу — Кику-но Кодзи
Эйтаро Синдо — торговец Кохэй
Итиро Сугай — отец О-Хару
Кинносукэ Такамацу — управляющий борделем Маруя
Кинуё Танака — О-Хару
Дзюкити Уно — второй муж О-Хару, Якити
Юрико Хамада[ja] — придворная дама Китиока
Комако Хара[ja] — придворная дама Кудзуи
Хисако Яманэ — жена даймё Мацудайры
Эйсиро Янаги — фальшивомонетчик
Описание:В XVI веке молодая девушка изгнана со службы в императорском дворце за то, что посмела ответить на ухаживания мужчины более низкого общественного положения. После долгих злоключений, она проходит путь от наложницы до уличной проститутки.
Доп. информация:Исходник найден в сети.Профессиональный (двухголосый закадровый) Триумф Видео , Авторский (одноголосый закадровый) С. Кузнецов и русские субтитрыРеавторинг Нордер.Огромное Спасибо Всем, без чьей помощи этот релиз не состоялся бы!Сценарий:Кэндзи Мидзогути, Ёсиката Ёда, Сайкаку ИхараПродюсер:Хидео Кои, Кэндзи Мидзогути, Исаму ЁсидзиОператор:Ёсими Хирано, Ёсими КоноКомпозитор:Итиро СайтоХудожник:Хироши МидзутаниМонтаж:Тосио Гото

Знаете ли вы, что

Награды и номинации


Рецензия

Софт

PGCDemux (извлечение).
BeSweet, Sony Vegas 9 (звук).
DVD-lab PRO 2, Subtitle Workshop (субтитры).
MuxMan (сборка). DvdReMakePro (финал).

Бонусы:(Без перевода)

-New, restored high-definition digital film transfer, with uncompressed monaural soundtrack
-New audio commentary for the opening of the movie by film scholar Dudley Andrew
-Mizoguchi’s Art and the Demimonde, an illustrated audio essay featuring Andrew
-The Travels of Kinuyo Tanaka, a 2009 film by Koko Kajiyama documenting the actor’s 1949 goodwill tour of the United States
-New English subtitle translation
Меню:Английский, статичное, неозвученное.Сэмпл:https://www.sendspace.com/file/eqfvuh
Тип релиза:DVD9 (Custom)
Контейнер:DVD-Video
Видео:NTSC 4:3 (720x480) VBR, 4937 Кбит/сек, 23,976 кадра/сек
Аудио 1:Русский:AC3, 2 ch, 48.0 KHz, 192 Кбит/сек / Профессиональный (двухголосый закадровый) Триумф ВидеоАудио 2: Английский:AC3, 1 ch, 48.0 KHz, 192 Кбит/сек / Комментарий Dudley Andrew
Аудио 3:Японский:AC3, 1 ch, 48.0 KHz, 384 Кбит/сек / ОригиналАудио 4:Русский:AC3, 2 ch, 48.0 KHz, 192 Кбит/сек / Авторский (одноголосый закадровый) С. КузнецовФормат субтитров:prerendered (DVD/IDX+SUB)

Dvd Info

Title: The Life of Oharu DVD-9_Custom_Criterion#664
Size: 7.90 Gb ( 8 282 444,00 KBytes ) - DVD-9
Enabled regions: 1, 2, 3, 4, 5, 6, 7, 8
VTS_01 :
Play Length: 00:00:00
Video: NTSC 4:3 (720x480) VBR
VTS_02 :
Play Length: 02:16:41
Video: NTSC 4:3 (720x480) VBR
Audio:
Russian, AC3, 2/0 (L,R) ch, 192 kbps, Delay 0 mSec
English, AC3, 1/0 (C) ch, 192 kbps, Delay 0 mSec
Japanese, AC3, 1/0 (C) ch, 384 kbps, Delay 0 mSec
Russian, AC3, 2/0 (L,R) ch, 192 kbps, Delay 0 mSec
Subtitles:
English
Russian
VTS_03 :
Play Length: 00:00:20
Video: NTSC 4:3 (720x480) VBR
VTS_04 :
Play Length: 00:18:49
Video: NTSC 16:9 (720x480) VBR, Auto Letterboxed
Audio:
English, AC3, 1/0 (C) ch, 192 kbps, Delay 0 mSec
VTS_05 :
Play Length: 00:31:12
Video: NTSC 4:3 (720x480) VBR
Audio:
Japanese, AC3, 1/0 (C) ch, 192 kbps, Delay 0 mSec
Subtitles:
English
VTS_06 :
Play Length: 00:00:00
Video: NTSC 4:3 (720x480) VBR

Mediainfo

Общее
Полное имя: F:\The Life of Oharu DVD-9_Custom_Criterion#664\VIDEO_TS\VTS_02_3.VOB
Формат : MPEG-PS
Размер файла : 1024 Мбайт
Продолжительность : 23 м.
Режим общего битрейта : Переменный
Общий поток : 6017 Кбит/сек
Видео
Идентификатор : 224 (0xE0)
Формат : MPEG Video
Версия формата : Version 2
Профиль формата : Main@Main
Параметр BVOP формата : Да
Параметр матрицы формата : Выборочная
Параметр GOP формата : Variable
Продолжительность : 23 м.
Вид битрейта : Переменный
Битрейт : 4937 Кбит/сек
Максимальный битрейт : 9800 Кбит/сек
Ширина : 720 пикселей
Высота : 480 пикселей
Соотношение сторон : 4:3
Частота кадров : 23,976 кадра/сек
Стандарт вещания : NTSC
Цветовое пространство : YUV
Субдискретизация насыщенности : 4:2:0
Битовая глубина : 8 бит
Тип развёртки : Прогрессивная
Порядок развёртки : 2:3 Pulldown
Метод сжатия : С потерями
Бит/(Пиксели*Кадры) : 0.596
Временной код первого кадра : 01:41:38:07
Оригинал временного кода : Group of pictures header
Размер потока : 840 Мбайт (82%)
Аудио #1
Идентификатор : 189 (0xBD)-128 (0x80)
Формат : AC-3
Формат/Информация : Audio Coding 3
Расширение режима : CM (complete main)
Параметр Endianness формата : Big
Режим смешивания : DVD-Video
Продолжительность : 23 м.
Вид битрейта : Постоянный
Битрейт : 192 Кбит/сек
Каналы : 2 канала
Расположение каналов : Front: L R
Частота : 48,0 КГц
Битовая глубина : 16 бит
Метод сжатия : С потерями
Задержка видео : -659 мс.
Размер потока : 32,7 Мбайт (3%)
Аудио #2
Идентификатор : 189 (0xBD)-129 (0x81)
Формат : AC-3
Формат/Информация : Audio Coding 3
Расширение режима : CM (complete main)
Параметр Endianness формата : Big
Режим смешивания : DVD-Video
Продолжительность : 23 м.
Вид битрейта : Постоянный
Битрейт : 192 Кбит/сек
Каналы : 1 канал
Расположение каналов : Front: C
Частота : 48,0 КГц
Битовая глубина : 16 бит
Метод сжатия : С потерями
Задержка видео : -659 мс.
Размер потока : 32,7 Мбайт (3%)
Аудио #3
Идентификатор : 189 (0xBD)-130 (0x82)
Формат : AC-3
Формат/Информация : Audio Coding 3
Расширение режима : CM (complete main)
Параметр Endianness формата : Big
Режим смешивания : DVD-Video
Продолжительность : 23 м.
Вид битрейта : Постоянный
Битрейт : 384 Кбит/сек
Каналы : 1 канал
Расположение каналов : Front: C
Частота : 48,0 КГц
Битовая глубина : 16 бит
Метод сжатия : С потерями
Задержка видео : -755 мс.
Размер потока : 65,4 Мбайт (6%)
Аудио #4
Идентификатор : 189 (0xBD)-131 (0x83)
Формат : AC-3
Формат/Информация : Audio Coding 3
Расширение режима : CM (complete main)
Параметр Endianness формата : Big
Режим смешивания : DVD-Video
Продолжительность : 23 м.
Вид битрейта : Постоянный
Битрейт : 192 Кбит/сек
Каналы : 2 канала
Расположение каналов : Front: L R
Частота : 48,0 КГц
Битовая глубина : 16 бит
Метод сжатия : С потерями
Задержка видео : -659 мс.
Размер потока : 32,7 Мбайт (3%)
Текст #1
Идентификатор : 189 (0xBD)-32 (0x20)
Формат : RLE
Формат/Информация : Run-length encoding
Режим смешивания : DVD-Video
Текст #2
Идентификатор : 189 (0xBD)-33 (0x21)
Формат : RLE
Формат/Информация : Run-length encoding
Режим смешивания : DVD-Video

Скриншоты меню

Скриншоты

Скриншоты доп. материалов


[teatrix.ru].t7164.torrent 
Торрент: Зарегистрирован [ 2015-10-11 11:22 ] · 61896DFD6FBA3DC91BCAF589145816ED17216331

Скачать .torrent

Скачать

42 KB

Статус: проверено
Скачан: 0 раз
Размер: 7.9 GB
terms.php



Быстрый ответ

Имя:

      
Для отправки сообщений необходимо включить JavaScript
Показать сообщения:    

Текущее время: 10-Дек 08:04

Часовой пояс: UTC + 3


Вы можете начинать темы
Вы можете отвечать на сообщения
Вы не можете редактировать свои сообщения
Вы не можете удалять свои сообщения
Вы не можете голосовать в опросах
Вы не можете прикреплять файлы к сообщениям
Вы можете скачивать файлы