Обнажённое детство / Lenfance nue / Naked Childhood (Морис Пиала / Maurice Pialat) [1968, Франция, Драма, DVD9 (Custom)] VO (В.Кошкин) + Sub Eng, Rus + Original Fre / Criterion Collection#534


Статистика раздачи [Обновить пиров]
Размер:  7.72 GB   |    Зарегистрирован:  1 год 1 месяц   |    Скачан:  0 раз

Полного источника не было: Никогда

 
   
 
 
 

[Цитировать]

Обнажённое детство / L'enfance nue / Naked Childhood / Criterion Collection#534
Страна:Франция
Студия:Les Films du Carrosse, Parafrance Films, Parc Film, Renn Productions.
Жанр:ДрамаГод выпуска:1968
Продолжительность:01:23:05
Производитель:The Criterion Collection #534
Перевод:Одноголосый (закадровый) Василий Кошкин
Cубтитры:Английские, Русские
Оригинальная аудиодорожка:Французский
Премьера (мир):4.04.1968
Режиссер:Морис Пиала / Maurice PialatВ ролях:Мишель Терразон, Линда Гутемберг, Рауль Бийре, Pierrette Deplanque, Мари-Луиза Тьерри, Рене Тьерри, Henri Puff, Мари Марк, Maurice Coussonneau
Описание:Французская драма «Обнажённое детство» стала первым полнометражным фильмом Мориса Пиалы. Картина рассказывает непростую историю обиженного жизнью десятилетнего мальчика, оказавшегося в приюте из-за того, что его мать попросту от него отказалась. Его усыновляют приёмные родители-рабочие, и какое-то время Франсуа живёт вместе с ними. Но вскоре в бедной семье понимают, что им не потянуть содержание приёмного ребёнка, и решают возвратить мальчика в приют. Узнав об этом, Франсуа задумывает своеобразную месть: он убивает котёнка, принадлежащего их дочери, несмотря на то, что сам же о нём заботился.
Доп. информация:Исходник найден в сети.Любительский (одноголосый закадровый), Перевод: Malky; озвучка: Василий КошкинРусские субтитрыРеавторинг Нордер.Огромное Спасибо Всем, без чьей помощи этот релиз не состоялся бы!Сценарий:Арлетт Лангманн, Морис ПиалаПродюсер:Вера Бельмон, Guy Benier, Клод БерриОператор:Клод Бозолей

Это интересно

Пиала, Морис-https://ru.wikipedia.org/wiki/Пиала,_Морис
Фильм-[url=https://fr.wikipedia.org/wiki/L'Enfance_nue]https://fr.wikipedia.org/wiki/L'Enfance_nue[/url]

Награды и номинации

Рецензия

Софт

PGCDemux (извлечение).
BeSweet, Sony Vegas 9 (звук).
DVD-lab PRO 2, Subtitle Workshop (субтитры).
MuxMan (сборка). DvdReMakePro (финал).

Бонусы:(Без перевода)

New, restored high-definition digital transfer
L’amour existe, director Maurice Pialat’s poetic 1960 short film about life on the outskirts of Paris
Autour de “L’enfance nue,” a fifty-minute documentary shot just after the film’s release
Excerpts from a 1973 French television interview with Pialat
New visual essay by critic Kent Jones on the film and Pialat’s cinematic style
Video interview with Pialat collaborators Arlette Langmann and Patrick Grandperret
New and improved English subtitle translation
PLUS: A booklet featuring an essay by critic Phillip Lopate
New cover by Steve Chow
Меню:Английский, статичное, неозвученное.Сэмпл:https://www.sendspace.com/file/83qrdt
Тип релиза:DVD9 (Custom)
Контейнер:DVD-Video
Видео:NTSC 16:9 (720x480) VBR, Auto Letterboxed, 5741 Кбит/сек, 29,970 кадров/сек
Аудио 1:Русский:AC3, 2 ch, 48.0 KHz, 192 Кбит/сек / Одноголосый (закадровый) Василий КошкинАудио 2:Французский:AC3, 1 ch, 48.0 KHz, 192 Кбит/сек / Оригинал
Формат субтитров:prerendered (DVD/IDX+SUB)

Dvd Info

Title: L’enfance nue DVD-9_Custom_Criterion#534
Size: 7.72 Gb ( 8 096 710,00 KBytes ) - DVD-9
Enabled regions: 1, 2, 3, 4, 5, 6, 7, 8
VTS_01 :
Play Length: 00:00:00
Video: NTSC 16:9 (720x480) VBR, Auto Letterboxed
VTS_02 :
Play Length: 00:11:12
Video: NTSC 16:9 (720x480) VBR, Auto Letterboxed
Audio:
English (Dolby AC3, 1 ch)
Subtitles:
English
VTS_03 :
Play Length: 01:23:05
Video: NTSC 16:9 (720x480) VBR, Auto Letterboxed
Audio:
Russian (Dolby AC3, 2 ch)
Francais (Dolby AC3, 1 ch)
Subtitles:
English
Russian
VTS_04 :
Play Length: 00:00:20
Video: NTSC 16:9 (720x480) VBR, Auto Pan&Scan
VTS_05 :
Play Length: 00:06:24
Video: NTSC 16:9 (720x480) VBR, Auto Letterboxed
Audio:
Francais (Dolby AC3, 1 ch)
Subtitles:
English
VTS_06 :
Play Length: 00:15:35
Video: NTSC 4:3 (720x480) VBR
Audio:
Francais (Dolby AC3, 1 ch)
Subtitles:
English
VTS_07 :
Play Length: 00:52:28
Video: NTSC 4:3 (720x480) VBR
Audio:
Francais (Dolby AC3, 1 ch)
Subtitles:
English
VTS_08 :
Play Length: 00:19:52
Video: NTSC 4:3 (720x480) VBR
Audio:
Francais, AC3, 1/0 (C) ch, 192 kbps, Delay 0 mSec
Subtitles:
English
VTS_09 :
Play Length: 00:00:00
Video: NTSC 4:3 (720x480) VBR

Mediainfo

Общее
Полное имя: F:\L’enfance nue DVD-9_Custom_Criterion#534\VIDEO_TS\VTS_03_1.VOB
Формат : MPEG-PS
Размер файла : 1024 Мбайт
Продолжительность : 22 м.
Режим общего битрейта : Переменный
Общий поток : 6250 Кбит/сек
Видео
Идентификатор : 224 (0xE0)
Формат : MPEG Video
Версия формата : Version 2
Профиль формата : Main@Main
Параметр BVOP формата : Да
Параметр матрицы формата : Выборочная
Параметр GOP формата : M=3, N=12
Продолжительность : 22 м.
Вид битрейта : Переменный
Битрейт : 5741 Кбит/сек
Максимальный битрейт : 9396 Кбит/сек
Ширина : 720 пикселей
Высота : 480 пикселей
Соотношение сторон : 16:9
Частота кадров : 29,970 кадров/сек
Стандарт вещания : NTSC
Цветовое пространство : YUV
Субдискретизация насыщенности : 4:2:0
Битовая глубина : 8 бит
Метод сжатия : С потерями
Бит/(Пиксели*Кадры) : 0.554
Временной код первого кадра : 09:59:40:00
Оригинал временного кода : Group of pictures header
Размер потока : 941 Мбайт (92%)
Аудио #1
Идентификатор : 189 (0xBD)-128 (0x80)
Формат : AC-3
Формат/Информация : Audio Coding 3
Расширение режима : CM (complete main)
Параметр Endianness формата : Big
Режим смешивания : DVD-Video
Продолжительность : 22 м.
Вид битрейта : Постоянный
Битрейт : 192 Кбит/сек
Каналы : 2 канала
Расположение каналов : Front: L R
Частота : 48,0 КГц
Битовая глубина : 16 бит
Метод сжатия : С потерями
Размер потока : 31,5 Мбайт (3%)
Аудио #2
Идентификатор : 189 (0xBD)-129 (0x81)
Формат : AC-3
Формат/Информация : Audio Coding 3
Расширение режима : CM (complete main)
Параметр Endianness формата : Big
Режим смешивания : DVD-Video
Продолжительность : 22 м.
Вид битрейта : Постоянный
Битрейт : 192 Кбит/сек
Каналы : 1 канал
Расположение каналов : Front: C
Частота : 48,0 КГц
Битовая глубина : 16 бит
Метод сжатия : С потерями
Размер потока : 31,5 Мбайт (3%)
Текст #1
Идентификатор : 189 (0xBD)-32 (0x20)
Формат : RLE
Формат/Информация : Run-length encoding
Режим смешивания : DVD-Video
Текст #2
Идентификатор : 189 (0xBD)-33 (0x21)
Формат : RLE
Формат/Информация : Run-length encoding
Режим смешивания : DVD-Video
Текст #3
Идентификатор : 189 (0xBD)-34 (0x22)
Формат : RLE
Формат/Информация : Run-length encoding
Режим смешивания : DVD-Video

Скриншоты меню

Скриншоты

Скриншоты доп. материалов




Полиграфия + Буклет



Буклет-https://www.sendspace.com/file/m1cpgt
[teatrix.ru].t7166.torrent 
Торрент: Зарегистрирован [ 2015-10-11 11:22 ] · 96B80AA19044B389C52E8A354DECB44FD83BAAED

Скачать .torrent

Скачать

41 KB

Статус: проверено
Скачан: 0 раз
Размер: 7.72 GB
terms.php



Быстрый ответ

Имя:

      
Для отправки сообщений необходимо включить JavaScript
Показать сообщения:    

Текущее время: 04-Дек 21:18

Часовой пояс: UTC + 3


Вы можете начинать темы
Вы можете отвечать на сообщения
Вы не можете редактировать свои сообщения
Вы не можете удалять свои сообщения
Вы не можете голосовать в опросах
Вы не можете прикреплять файлы к сообщениям
Вы можете скачивать файлы