Парень встречает девушку / Boy Meets Girl (Леос Каракс / Leos Carax) [1984, Франция, Драма, Мелодрама, DVD9 (Custom)] MVO (Кармен-видео) + Sub Eng, Rus + Original Fre / Artificial Eye


Статистика раздачи [Обновить пиров]
Размер:  7.59 GB   |    Зарегистрирован:  1 год 1 месяц   |    Скачан:  0 раз

Полного источника не было: Никогда

 
   
 
 
 

[Цитировать]

Парень встречает девушку / Boy Meets Girl / Artificial Eye
Страна:Франция
Студия:Abilene.
Жанр:Драма, МелодрамаГод выпуска:1984
Продолжительность:01:39:48
Производитель:Artificial Eye
Перевод:Профессиональный (многоголосый закадровый)Кармен-видеоCубтитры:Английские, РусскиеОригинальная аудиодорожка:Французский
Премьера (мир):7.09.1984
Режиссер:Леос Каракс / Leos CaraxВ ролях:Дени Лаван, Мирей Перье, Кэррол Брукс, Майте Наир, Эли Пуакар, Кристиан Клорек, Лоррэйн Бергер, Марк Деклозо, Анна Балдаччини, Эвелин Шмитт
Описание:Своим полнометражным дебютом под пижонским англоязычным названием 23-летний Каракс так поразил эстетствующую критику, что она тут же заговорила о реинкарнации "новой волны". Черно-белый мир, где зрителю надлежит угадывать оттенки чувств, схватывался нервной камерой, порой не знающей, куда ее занесет. Отсутствие четкого сценария компенсировалось прихотливым монтажным ритмом. Дени Лаван, похожий на человека героической судьбы, выглядел так, что мог не производить осмысленных действий. Он их почти и не производил, в основном — разговаривал. Его герой — покинутый любовником режиссер на пике депрессии. Его визави — актриса, которая тоже только что осталась одна.
Они встречаются на вечеринке, куда герой забредает в надежде выкинуть какую-нибудь гадость и успокоиться. Но вместо этого он разговаривает с дамой, от которой его отделяет кухонный стол и километры отчуждения. И чем дальше заходит разговор, тем нужнее друг другу собеседники, которым так страшно в этом признаться…

Доп. информация:Исходник найден в сети.Профессиональный (многоголосый закадровый) Кармен-видео и русские субтитрыРеавторинг Нордер.Огромное Спасибо Всем, без чьей помощи этот релиз не состоялся бы!Сценарий:Леос КараксПродюсер:Патриция Мораз, Ален ДаанОператор:Жан-Ив ЭскофферХудожник:Жан Бауэр, Серж МарзольффМонтаж:Nelly Meunier, Френсин Сандберг
Леос Каракс-https://ru.wikipedia.org/wiki/Леос_Каракс Фильм-https://en.wikipedia.org/wiki/Boy_Meets_Girl_(1984_film)Награды и номинации">

Это интересноЛеос Каракс-https://ru.wikipedia.org/wiki/Леос_Каракс Фильм-https://en.wikipedia.org/wiki/Boy_Meets_Girl_(1984_film)Награды и номинации



Рецензия

Софт

PGCDemux (извлечение).
BeSweet, Sony Vegas 9 (звук).
DVD-lab PRO 2, Subtitle Workshop (субтитры).
MuxMan (сборка). DvdReMakePro (финал).

Бонусы:(Без перевода)

Introduction by Denis Lavant-(00:08:09).On set "In the kitchen"-(00:17:36).
Меню:Английский, анимированное, озвученное.Сэмпл:https://www.sendspace.com/file/siqq7w
Тип релиза:DVD9 (Custom)
Контейнер:DVD-Video
Видео:PAL 16:9 (720x576) VBR, Auto Letterboxed, 8452 Кбит/сек, 25,000 кадров/сек
Аудио 1:Русский:AC3, 2 ch, 48.0 KHz, 224 Кбит/сек / Профессиональный (многоголосый закадровый) Кармен-видеоАудио 2:Французский:AC3, 2 ch, 48.0 KHz, 224 Кбит/сек / (Оригинал)Формат субтитров:prerendered (DVD/IDX+SUB)

Dvd Info

Title: Boy Meets Girl DVD-9_Custom
Size: 7.59 Gb ( 7 961 564,00 KBytes ) - DVD-9
Enabled regions: 1, 2, 3, 4, 5, 6, 7, 8
VTS_01 :
Play Length: 01:39:48+00:00:07+00:00:20+00:00:00
Video: PAL 16:9 (720x576) VBR, Auto Letterboxed
Audio:
Russian, AC3, 2/0 (L,R) ch, 224 kbps, Delay 0 mSec
Francais, AC3, 2/0 (L,R) ch, 224 kbps, Delay 0 mSec
Subtitles:
English
Russian
VTS_02 :
Play Length: 00:08:09+00:17:36+00:00:08
Video: PAL 4:3 (720x576) VBR
Audio:
Francais, AC3, 2/0 (L,R) ch, 224 kbps, Delay 0 mSec
Subtitles:
English

Mediainfo

Общее
Полное имя: F:\Boy Meets Girl DVD-9_Custom\VIDEO_TS\VTS_01_1.VOB
Формат : MPEG-PS
Размер файла : 1024 Мбайт
Продолжительность : 15 м.
Режим общего битрейта : Переменный
Общий поток : 9081 Кбит/сек
Видео
Идентификатор : 224 (0xE0)
Формат : MPEG Video
Версия формата : Version 2
Профиль формата : Main@Main
Параметр BVOP формата : Да
Параметр матрицы формата : Выборочная
Параметр GOP формата : Variable
Продолжительность : 15 м.
Вид битрейта : Переменный
Битрейт : 8452 Кбит/сек
Максимальный битрейт : 9026 Кбит/сек
Ширина : 720 пикселей
Высота : 576 пикселей
Соотношение сторон : 16:9
Частота кадров : 25,000 кадров/сек
Стандарт вещания : PAL
Цветовое пространство : YUV
Субдискретизация насыщенности : 4:2:0
Битовая глубина : 8 бит
Тип развёртки : Чересстрочная
Порядок развёртки : Верхнее поле первое
Метод сжатия : С потерями
Бит/(Пиксели*Кадры) : 0.815
Временной код первого кадра : 09:59:59:00
Оригинал временного кода : Group of pictures header
Размер потока : 953 Мбайт (93%)
Аудио #1
Идентификатор : 189 (0xBD)-128 (0x80)
Формат : AC-3
Формат/Информация : Audio Coding 3
Расширение режима : CM (complete main)
Параметр Endianness формата : Big
Режим смешивания : DVD-Video
Продолжительность : 15 м.
Вид битрейта : Постоянный
Битрейт : 224 Кбит/сек
Каналы : 2 канала
Расположение каналов : Front: L R
Частота : 48,0 КГц
Битовая глубина : 16 бит
Метод сжатия : С потерями
Размер потока : 25,3 Мбайт (2%)
Аудио #2
Идентификатор : 189 (0xBD)-129 (0x81)
Формат : AC-3
Формат/Информация : Audio Coding 3
Расширение режима : CM (complete main)
Параметр Endianness формата : Big
Режим смешивания : DVD-Video
Продолжительность : 15 м.
Вид битрейта : Постоянный
Битрейт : 224 Кбит/сек
Каналы : 2 канала
Расположение каналов : Front: L R
Частота : 48,0 КГц
Битовая глубина : 16 бит
Метод сжатия : С потерями
Размер потока : 25,3 Мбайт (2%)
Текст #1
Идентификатор : 189 (0xBD)-34 (0x22)
Формат : RLE
Формат/Информация : Run-length encoding
Режим смешивания : DVD-Video
Продолжительность : 15 м.
Задержка видео : 1 с. 80 мс.
Текст #2
Идентификатор : 189 (0xBD)-32 (0x20)
Формат : RLE
Формат/Информация : Run-length encoding
Режим смешивания : DVD-Video
Текст #3
Идентификатор : 189 (0xBD)-33 (0x21)
Формат : RLE
Формат/Информация : Run-length encoding
Режим смешивания : DVD-Video

Скриншоты меню


Скриншоты

Скриншоты доп. материалов

Полиграфия



[teatrix.ru].t7167.torrent 
Торрент: Зарегистрирован [ 2015-10-11 11:22 ] · 685BA7033A09C825AD608E6A4190DD6A817BBDC5

Скачать .torrent

Скачать

39 KB

Статус: проверено
Скачан: 0 раз
Размер: 7.59 GB
terms.php



Быстрый ответ

Имя:

      
Для отправки сообщений необходимо включить JavaScript
Показать сообщения:    

Текущее время: 05-Дек 11:34

Часовой пояс: UTC + 3


Вы можете начинать темы
Вы можете отвечать на сообщения
Вы не можете редактировать свои сообщения
Вы не можете удалять свои сообщения
Вы не можете голосовать в опросах
Вы не можете прикреплять файлы к сообщениям
Вы можете скачивать файлы