История воды / A Story of Water (Жан-Люк Годар / Jean-Luc Godard, Франсуа Трюффо / Francois Roland Truffaut) [1958, Франция, Короткометражка, Мелодрама, DVD9 (Custom)] AVO(А.Алексеев) + MVO + Sub Eng, Rus + Original Fra / Criterion Collection#462


Статистика раздачи [Обновить пиров]
Размер:  5.93 GB   |    Зарегистрирован:  1 год 1 месяц   |    Скачан:  0 раз

Полного источника не было: Никогда

 
   
 
 
 

[Цитировать]

История воды / Une histoire d'eau / A Story of Water / Criterion Collection#462
Диск 2 / Supplements-Страна:Франция
Студия:Les Films de la Pleiade.
Жанр:Короткометражка, МелодрамаГод выпуска:1958
Продолжительность:00:12:15
Производитель:The Criterion Collection #462
Перевод 1:Авторский (одноголосый закадровый) А.АлексеевПеревод 2:Профессиональный (многоголосый, закадровый)Другое киноCубтитры:Английские, Русские
Оригинальная аудиодорожка:Французский
Премьера (мир):3.03.1961
Режиссер:Жан-Люк Годар / Jean-Luc Godard, Франсуа Трюффо / Francois Roland TruffautВ ролях:Жан-Клод Бриали, Каролина Дим, Жан-Люк Годар
Описание:Женский голос за кадром комментирует похождения своей обладательницы, в один прекрасный день вышедшей из дома и обнаружившей, что на Францию обрушилось наводнение. Женщина пытается добраться до Парижа, встречает по пути мужчину, между ними завязывается роман. Основная сюжетная линия эффектно смонтирована с аэросъемками затопленной местности.
Доп. информация:Исходник найден в сети.Авторский (одноголосый закадровый) А.АлексеевПрофессиональный (многоголосый, закадровый) Другое кино и русские субтитрыРеавторинг Нордер.Огромное Спасибо Всем, без чьей помощи этот релиз не состоялся бы!Сценарий:Жан-Люк Годар, Франсуа ТрюффоПродюсер:Пьер БронбержеОператор:Мишель ЛатушМонтаж:Жан-Люк Годар
Трюффо, Франсуа-https://ru.wikipedia.org/wiki/Трюффо,_Франсуа Годар, Жан-Люк-https://ru.wikipedia.org/wiki/Годар,_Жан-ЛюкФильм-[url=https://fr.wikipedia.org/wiki/Une_histoire_d'eau]https://fr.wikipedia.org/wiki/Une_histoire_d'eau[/url]Рецензия">

Это интересноТрюффо, Франсуа-https://ru.wikipedia.org/wiki/Трюффо,_Франсуа Годар, Жан-Люк-https://ru.wikipedia.org/wiki/Годар,_Жан-ЛюкФильм-[url=https://fr.wikipedia.org/wiki/Une_histoire_d'eau]https://fr.wikipedia.org/wiki/Une_histoire_d'eau[/url]Рецензия


Софт

PGCDemux (извлечение).
BeSweet, Sony Vegas 9 (звук).
DVD-lab PRO 2, Subtitle Workshop (субтитры).
MuxMan (сборка). DvdReMakePro (финал).

Бонусы:(Без перевода)

- Deleted scene
- French television excerpts of interviews with Truffaut, and actors Catherine Deneuve, Depardieu, and Jean Poiret
- New video interviews with actresses Andrea Ferreol, Sabine Haudepin, and Paulette Dubost, assistant director Alain Tasma, and camera assistants Florent Bazin and Tessa Racine
- A video interview with the celebrated cinematographer Nestor Almendros, detailing his collaborations with Truffaut
- Une histoire d’eau, Truffaut’s 1958 short film co-directed by Jean-Luc Godard
- Theatrical trailer
- New and improved English subtitle translation
Меню:Английский, статичное, неозвученное.Сэмпл:https://www.sendspace.com/file/v1o641
Тип релиза:DVD9 (Custom)
Контейнер:DVD-Video
Видео:NTSC 4:3 (720x480) VBR, 9000 Кбит/сек, 23,976 кадра/сек
Аудио 1:Русский:AC3, 2 ch, 48.0 KHz, 192 Кбит/сек / Авторский (одноголосый закадровый) А.АлексеевАудио 2:Русский:AC3, 2 ch, 48.0 KHz, 192 Кбит/сек / Профессиональный (многоголосый, закадровый)Другое киноАудио 3:Французский:AC3, 1 ch, 48.0 KHz, 192 Кбит/сек / (Оригинал)Формат субтитров:prerendered (DVD/IDX+SUB)

Dvd Info

Title: The Last Metro DVD-9_Custom_Criterion#462_d2
Size: 5.93 Gb ( 6 217 804,00 KBytes ) - DVD-9
Enabled regions: 1, 2, 3, 4, 5, 6, 7, 8
VTS_01 :
Play Length: 00:00:06
Video: NTSC 16:9 (720x480) VBR, Auto Letterboxed
Audio:
English, AC3, 1/0 (C) ch, 192 kbps, Delay 0 mSec
Subtitles:
English
VTS_02 :
Play Length: 00:00:06
Video: NTSC 16:9 (720x480) VBR, Auto Letterboxed
Audio:
English, AC3, 1/0 (C) ch, 192 kbps, Delay 0 mSec
Subtitles:
English
VTS_03 :
Play Length: 00:10:47
Video: NTSC 4:3 (720x480) VBR
Audio:
Francais, AC3, 1/0 (C) ch, 192 kbps, Delay 0 mSec
Subtitles:
English
VTS_04 :
Play Length: 00:06:29
Video: NTSC 4:3 (720x480) VBR
Audio:
Francais, AC3, 1/0 (C) ch, 192 kbps, Delay 0 mSec
Subtitles:
English
VTS_05 :
Play Length: 00:02:46
Video: NTSC 4:3 (720x480) VBR
Audio:
Francais, AC3, 1/0 (C) ch, 192 kbps, Delay 0 mSec
Subtitles:
English
VTS_06 :
Play Length: 00:28:05
Video: NTSC 4:3 (720x480) VBR
Audio:
Francais, AC3, 1/0 (C) ch, 192 kbps, Delay 0 mSec
Subtitles:
English
VTS_07 :
Play Length: 00:12:15
Video: NTSC 4:3 (720x480) VBR
Audio:
Russian (Dolby AC3, 2 ch)
Russian (Dolby AC3, 2 ch)
Francais (Dolby AC3, 1 ch)
Subtitles:
English
Russian
VTS_08 :
Play Length: 00:14:56
Video: NTSC 16:9 (720x480) VBR, Auto Letterboxed
Audio:
Francais, AC3, 1/0 (C) ch, 192 kbps, Delay 0 mSec
Subtitles:
English
VTS_09 :
Play Length: 00:09:34
Video: NTSC 16:9 (720x480) VBR, Auto Letterboxed
Audio:
Francais, AC3, 1/0 (C) ch, 192 kbps, Delay 0 mSec
Subtitles:
English
English
VTS_10 :
Play Length: 00:05:00
Video: NTSC 16:9 (720x480) VBR, Auto Letterboxed
Audio:
Francais, AC3, 1/0 (C) ch, 192 kbps, Delay 0 mSec

Mediainfo

Общее
Полное имя: F:\The Last Metro DVD-9_Custom_Criterion#462_d2\VIDEO_TS\VTS_07_1.VOB
Формат : MPEG-PS
Размер файла : 857 Мбайт
Продолжительность : 12 м.
Режим общего битрейта : Переменный
Общий поток : 9767 Кбит/сек
Видео
Идентификатор : 224 (0xE0)
Формат : MPEG Video
Версия формата : Version 2
Профиль формата : Main@Main
Параметр BVOP формата : Да
Параметр матрицы формата : Выборочная
Параметр GOP формата : Variable
Продолжительность : 12 м.
Вид битрейта : Переменный
Битрейт : 9000 Кбит/сек
Ширина : 720 пикселей
Высота : 480 пикселей
Соотношение сторон : 4:3
Частота кадров : 23,976 кадра/сек
Стандарт вещания : NTSC
Цветовое пространство : YUV
Субдискретизация насыщенности : 4:2:0
Битовая глубина : 8 бит
Тип развёртки : Прогрессивная
Порядок развёртки : 2:3 Pulldown
Метод сжатия : С потерями
Бит/(Пиксели*Кадры) : 1.086
Временной код первого кадра : 00:59:59:00
Оригинал временного кода : Group of pictures header
Размер потока : 789 Мбайт (92%)
Аудио #1
Идентификатор : 189 (0xBD)-128 (0x80)
Формат : AC-3
Формат/Информация : Audio Coding 3
Расширение режима : CM (complete main)
Параметр Endianness формата : Big
Режим смешивания : DVD-Video
Продолжительность : 12 м.
Вид битрейта : Постоянный
Битрейт : 192 Кбит/сек
Каналы : 2 канала
Расположение каналов : Front: L R
Частота : 48,0 КГц
Битовая глубина : 16 бит
Метод сжатия : С потерями
Размер потока : 16,8 Мбайт (2%)
Аудио #2
Идентификатор : 189 (0xBD)-129 (0x81)
Формат : AC-3
Формат/Информация : Audio Coding 3
Расширение режима : CM (complete main)
Параметр Endianness формата : Big
Режим смешивания : DVD-Video
Продолжительность : 12 м.
Вид битрейта : Постоянный
Битрейт : 192 Кбит/сек
Каналы : 2 канала
Расположение каналов : Front: L R
Частота : 48,0 КГц
Битовая глубина : 16 бит
Метод сжатия : С потерями
Размер потока : 16,8 Мбайт (2%)
Аудио #3
Идентификатор : 189 (0xBD)-130 (0x82)
Формат : AC-3
Формат/Информация : Audio Coding 3
Расширение режима : CM (complete main)
Параметр Endianness формата : Big
Режим смешивания : DVD-Video
Продолжительность : 12 м.
Вид битрейта : Постоянный
Битрейт : 192 Кбит/сек
Каналы : 1 канал
Расположение каналов : Front: C
Частота : 48,0 КГц
Битовая глубина : 16 бит
Метод сжатия : С потерями
Размер потока : 16,8 Мбайт (2%)

Скриншоты меню


Скриншоты

Скриншоты доп. материалов



Полиграфия

[teatrix.ru].t7197.torrent 
Торрент: Зарегистрирован [ 2015-10-11 11:22 ] · C67719BA71728C01847A48C46D0E55FF0B249B6B

Скачать .torrent

Скачать

32 KB

Статус: проверено
Скачан: 0 раз
Размер: 5.93 GB
terms.php



Быстрый ответ

Имя:

      
Для отправки сообщений необходимо включить JavaScript
Показать сообщения:    

Текущее время: 11-Дек 05:22

Часовой пояс: UTC + 3


Вы можете начинать темы
Вы можете отвечать на сообщения
Вы не можете редактировать свои сообщения
Вы не можете удалять свои сообщения
Вы не можете голосовать в опросах
Вы не можете прикреплять файлы к сообщениям
Вы можете скачивать файлы