Последнее метро / Dernier metro, Le / The Last Metro (Франсуа Трюффо / Francois Truffaut) [1980, Франция, Драма, Мелодрама, Военный, DVD9 (Custom)] MVO (Кармен Видео) + MVO (Домашний) + Sub Eng, Rus + Original Fre / Criterion Collection#462


Статистика раздачи [Обновить пиров]
Размер:  7.95 GB   |    Зарегистрирован:  1 год 1 месяц   |    Скачан:  0 раз

Полного источника не было: Никогда

 
   
 
 
 

[Цитировать]

Последнее метро / Dernier metro, Le \ The Last Metro / Criterion Collection#462«A story of love and conflict»
Диск 1-Страна:Франция
Студия:Les Films du Carrosse, Sedif Productions, Societe Francaise de Production (SFP), TF1 Films Production.
Жанр:Драма, Мелодрама, ВоенныйГод выпуска:1980
Продолжительность:02:12:00
Производитель:The Criterion Collection #462
Перевод 1:Профессиональный (многоголосый закадровый) Кармен ВидеоПеревод 2:Профессиональный (многоголосый закадровый)ДомашнийCубтитры:Английские, Русские
Оригинальная аудиодорожка:Французский
Премьера (мир):17.09.1980
Режиссер:Франсуа Трюффо / Francois TruffautВ ролях:Жерар Депардьё — Бернар Гранже
Катрин Денёв — Марион Штайнер
Жан Пуаре — Жан-Лу Коттен
Андреа Ферреоль — Арлетт Гильом
Полетт Дюбо — Жермен Фабре
Жан-Луи Ришар — критик Даксиа
Хайнц Беннент — Люка Штайнер
Морис Риш — Раймон Борсье
Сабин Одепен — Надин Марсак
Описание:Вторая Мировая. Оккупированный Париж. Общество расколото на молчаливое большинство, невидимых партизан, открытых коллаборационистов — и жертв режима, скрывающихся от нацистской расправы. К последним относится еврей Жан-Лу Коттен, театральный режиссер и муж ведущей актрисы — Марион Штайнер.
С риском для себя и всего коллектива Марион решает спрятать мужа в подвале театра, откуда Жан-Лу продолжает вдохновенно, через жену, готовить новую премьеру.
На Марион тем временем ложится одна забота за другой: тайно носить еду в подвал (что в условиях тотального доносительства превращается в целое искусство); распространять слухи, что ее муж сбежал из города; аккуратно сдерживать натиск влиятельного немецкого ухажера… Вдобавок Марион увлекается коллегой — актером Бернаром…

Доп. информация:Исходник найден в сети.Профессиональный (многоголосый закадровый) Кармен Видеои русские субтитрыПрофессиональный (многоголосый закадровый) ДомашнийРусские дорожки и субтитры запускаются с пульта.Одно меню переведенно в статику.Реавторинг Нордер.Огромное Спасибо Всем, без чьей помощи этот релиз не состоялся бы!Сценарий:Франсуа Трюффо, Сюзанн Шиффман, Жан-Клод ГрумбергПродюсер:Франсуа ТрюффоОператор:Нестор АльмендросКомпозитор:Жорж ДелерюХудожник:Жан-Пьер Кою-Свелко, Лизель РусМонтаж:Мартина Баррак
Трюффо, Франсуа-https://ru.wikipedia.org/wiki/Трюффо,_Франсуа Фильм-https://ru.wikipedia.org/wiki/Последнее_метроЗнаете ли вы, что">

Это интересноТрюффо, Франсуа-https://ru.wikipedia.org/wiki/Трюффо,_Франсуа Фильм-https://ru.wikipedia.org/wiki/Последнее_метроЗнаете ли вы, что


Награды и номинации


Рецензия

Софт

PGCDemux (извлечение).
BeSweet, Sony Vegas 9 (звук).
DVD-lab PRO 2, Subtitle Workshop (субтитры).
MuxMan (сборка). DvdReMakePro (финал).

Бонусы:(Без перевода)

-Two audio commentaries: one featuring Annette Insdorf, author of Francois Truffaut, and one with actor Gerard Depardieu, historian Jean-Pierre Azema, and Truffat biographer Serge Toubiana
-New and improved English subtitle translation
Меню:Английский, анимированное, озвученное.Сэмпл:https://www.sendspace.com/file/pbu6ux
Тип релиза:DVD9 (Custom)
Контейнер:DVD-Video
Видео:NTSC 16:9 (720x480) VBR, Auto Letterboxed, 6662 Кбит/сек, 23,976 кадра/сек
Аудио 1:Французский:AC3, 1 ch, 48.0 KHz, 192 Кбит/сек / (Оригинал)Аудио 2:Английский:AC3, 1 ch, 48.0 KHz, 192 Кбит/сек / Комментарий Annette InsdorfАудио 3:Французский:AC3, 1 ch, 48.0 KHz, 192 Кбит/сек / Комментарий Gerard Depardieu, Jean-Pierre AzemaАудио 4:Русский:AC3, 2 ch, 48.0 KHz, 192 Кбит/сек / Профессиональный (многоголосый, закадровый) Кармен ВидеоАудио 5:Русский:AC3, 2 ch, 48.0 KHz, 192 Кбит/сек / Профессиональный (многоголосый, закадровый)ДомашнийФормат субтитров:prerendered (DVD/IDX+SUB)

Dvd Info

Title: The Last Metro DVD-9_Custom_Criterion#462_d1
Size: 7.95 Gb ( 8 338 172,00 KBytes ) - DVD-9
Enabled regions: 1, 2, 3, 4, 5, 6, 7, 8
VTS_01 :
Play Length: 02:12:00
Video: NTSC 16:9 (720x480) VBR, Auto Letterboxed
Audio:
Francais (Dolby AC3, 1 ch)
English (Dolby AC3, 1 ch)
Francais (Dolby AC3, 1 ch)
Russian (Dolby AC3, 2 ch)
Russian (Dolby AC3, 2 ch)
Subtitles:
English
English
Russian
VTS_02 :
Play Length: 00:00:06
Video: NTSC 4:3 (720x480) VBR
VTS_03 :
Play Length: 00:00:06
Video: NTSC 4:3 (720x480) VBR
VTS_04 :
Play Length: 00:00:20
Video: NTSC 4:3 (720x480) VBR
Audio:
Francais, AC3, 1/0 (C) ch, 192 kbps, Delay 0 mSec
VTS_05 :
Play Length: 00:00:20
Video: NTSC 4:3 (720x480) VBR
Audio:
Francais, AC3, 1/0 (C) ch, 192 kbps, Delay 0 mSec
VTS_06 :
Play Length: 00:00:20
Video: NTSC 4:3 (720x480) VBR
Audio:
Francais, AC3, 1/0 (C) ch, 192 kbps, Delay 0 mSec

Mediainfo

Общее
Полное имя: F:\The Last Metro DVD-9_Custom_Criterion#462_d1\VIDEO_TS\VTS_01_1.VOB
Формат : MPEG-PS
Размер файла : 1024 Мбайт
Продолжительность : 18 м.
Режим общего битрейта : Переменный
Общий поток : 7777 Кбит/сек
Видео
Идентификатор : 224 (0xE0)
Формат : MPEG Video
Версия формата : Version 2
Профиль формата : Main@Main
Параметр BVOP формата : Да
Параметр матрицы формата : Выборочная
Параметр GOP формата : Variable
Продолжительность : 18 м.
Вид битрейта : Переменный
Битрейт : 6662 Кбит/сек
Максимальный битрейт : 9800 Кбит/сек
Ширина : 720 пикселей
Высота : 480 пикселей
Соотношение сторон : 16:9
Частота кадров : 23,976 кадра/сек
Стандарт вещания : NTSC
Цветовое пространство : YUV
Субдискретизация насыщенности : 4:2:0
Битовая глубина : 8 бит
Тип развёртки : Прогрессивная
Порядок развёртки : 2:3 Pulldown
Метод сжатия : С потерями
Бит/(Пиксели*Кадры) : 0.804
Временной код первого кадра : 00:59:43:10
Оригинал временного кода : Group of pictures header
Размер потока : 877 Мбайт (86%)
Аудио #1
Идентификатор : 189 (0xBD)-128 (0x80)
Формат : AC-3
Формат/Информация : Audio Coding 3
Расширение режима : CM (complete main)
Параметр Endianness формата : Big
Режим смешивания : DVD-Video
Продолжительность : 18 м.
Вид битрейта : Постоянный
Битрейт : 192 Кбит/сек
Каналы : 1 канал
Расположение каналов : Front: C
Частота : 48,0 КГц
Битовая глубина : 16 бит
Метод сжатия : С потерями
Размер потока : 25,3 Мбайт (2%)
Аудио #2
Идентификатор : 189 (0xBD)-129 (0x81)
Формат : AC-3
Формат/Информация : Audio Coding 3
Расширение режима : CM (complete main)
Параметр Endianness формата : Big
Режим смешивания : DVD-Video
Продолжительность : 18 м.
Вид битрейта : Постоянный
Битрейт : 192 Кбит/сек
Каналы : 1 канал
Расположение каналов : Front: C
Частота : 48,0 КГц
Битовая глубина : 16 бит
Метод сжатия : С потерями
Размер потока : 25,3 Мбайт (2%)
Аудио #3
Идентификатор : 189 (0xBD)-130 (0x82)
Формат : AC-3
Формат/Информация : Audio Coding 3
Расширение режима : CM (complete main)
Параметр Endianness формата : Big
Режим смешивания : DVD-Video
Продолжительность : 18 м.
Вид битрейта : Постоянный
Битрейт : 192 Кбит/сек
Каналы : 1 канал
Расположение каналов : Front: C
Частота : 48,0 КГц
Битовая глубина : 16 бит
Метод сжатия : С потерями
Размер потока : 25,3 Мбайт (2%)
Аудио #4
Идентификатор : 189 (0xBD)-131 (0x83)
Формат : AC-3
Формат/Информация : Audio Coding 3
Расширение режима : CM (complete main)
Параметр Endianness формата : Big
Режим смешивания : DVD-Video
Продолжительность : 18 м.
Вид битрейта : Постоянный
Битрейт : 192 Кбит/сек
Каналы : 2 канала
Расположение каналов : Front: L R
Частота : 48,0 КГц
Битовая глубина : 16 бит
Метод сжатия : С потерями
Размер потока : 25,3 Мбайт (2%)
Аудио #5
Идентификатор : 189 (0xBD)-132 (0x84)
Формат : AC-3
Формат/Информация : Audio Coding 3
Расширение режима : CM (complete main)
Параметр Endianness формата : Big
Режим смешивания : DVD-Video
Продолжительность : 18 м.
Вид битрейта : Постоянный
Битрейт : 192 Кбит/сек
Каналы : 2 канала
Расположение каналов : Front: L R
Частота : 48,0 КГц
Битовая глубина : 16 бит
Метод сжатия : С потерями
Размер потока : 25,3 Мбайт (2%)
Текст #1
Идентификатор : 189 (0xBD)-32 (0x20)
Формат : RLE
Формат/Информация : Run-length encoding
Режим смешивания : DVD-Video
Текст #2
Идентификатор : 189 (0xBD)-33 (0x21)
Формат : RLE
Формат/Информация : Run-length encoding
Режим смешивания : DVD-Video
Текст #3
Идентификатор : 189 (0xBD)-34 (0x22)
Формат : RLE
Формат/Информация : Run-length encoding
Режим смешивания : DVD-Video
Текст #4
Идентификатор : 189 (0xBD)-35 (0x23)
Формат : RLE
Формат/Информация : Run-length encoding
Режим смешивания : DVD-Video
Текст #5
Идентификатор : 189 (0xBD)-36 (0x24)
Формат : RLE
Формат/Информация : Run-length encoding
Режим смешивания : DVD-Video

Скриншоты меню


Скриншоты

Скриншоты доп. материалов



[teatrix.ru].t7199.torrent 
Торрент: Зарегистрирован [ 2015-10-11 11:22 ] · 5A839E73D62CE8C58F431594125F1D8555AC8155

Скачать .torrent

Скачать

42 KB

Статус: проверено
Скачан: 0 раз
Размер: 7.95 GB
terms.php



Быстрый ответ

Имя:

      
Для отправки сообщений необходимо включить JavaScript
Показать сообщения:    

Текущее время: 03-Дек 18:35

Часовой пояс: UTC + 3


Вы можете начинать темы
Вы можете отвечать на сообщения
Вы не можете редактировать свои сообщения
Вы не можете удалять свои сообщения
Вы не можете голосовать в опросах
Вы не можете прикреплять файлы к сообщениям
Вы можете скачивать файлы