Евангелие от Матфея / Il vangelo secondo Matteo / The Gospel According to St. Matthew (Пьер Паоло Пазолини / Pier Paolo Pasolini) [1964, Италия, Франция, драма, экранизация, DVD9] MVO + Sub Eng + Original Ita


Статистика раздачи [Обновить пиров]
Размер:  6.41 GB   |    Зарегистрирован:  1 год 1 месяц   |    Скачан:  0 раз

Полного источника не было: Никогда

 
   
 
 
 

[Цитировать]

Евангелие от Матфея / Il vangelo secondo Matteo / The Gospel According to St. Matthew
Страна: Италия, Франция
Жанр: драма
Год выпуска: 1964
Продолжительность: 02:17:02
Перевод: Трёхголосый закадровый (издание от Some Wax)
Cубтитры: английские
Оригинальная аудиодорожка: итальянский
Режиссер: Пьер Паоло Пазолини / Pier Paolo Pasolini
В ролях: Энрике Ирасоки, Маргерита Карузо, Сузанна Пазолини, Марчелло Моранте, Марио Сократе, Сеттимио ди Порте, Альфонсо Гатто, Луиджи Барбини, Джакомо Моранте, Гвидо Черретани, Розарио Мигале, Феруччио Нуццо, Элио Спациани
Описание: Фильм описывает жизнь Иисуса с марксистско-католической точки зрения режиссёра и является как одним из самых критикуемых, так и одним из самых известных исторических произведений. По вопросу о соответствии экранизации тексту Библии, Пьер Паоло Пазолини заявлял, что…,,изображения никогда не смогут достичь поэтических высот текста,,Для экранизации Пьер Паоло выбрал Евангелие от Матфея, потому, что посчитал, что Евангелие от Иоанна слишком мистическое, от Марка — слишком вульгарное, от Луки — слишком сентиментальное.Фильм неожиданно стал очень популярен в Италии. Пазолини ранее даже заключался под стражу из-за своих фильмов, и к тому же он был коммунистом, атеистом и гомосексуалистом. Поэтому его картина на евангельские темы стала большой неожиданностью для зрителей.В отличие от многих фильмов на библейские темы, в «Евангелии от Матфея» сделан упор на реалистичност.Саундтрек к фильму был весьма эклектичен, варьируясь от Баха и Моцарта до фолк-блюз-джаз певицы Одетты.Над фильмом работали такие известные в киноидустрии личности, как художник по костюмам Данило Донати и оператор Тонино Делли Колли.
Многие актёры не были профессионалами: Энрике Иразоки, исполнивший роль Иисуса, — 19-летний студент из Испании, а остальные актёры были, в основном, местными жителями из итальянского города Матера, в котором снимался фильм.Деву Марию в сценах казни Иисуса сыграла мать режиссера — Сюзанна Пазолини.Апостола Филиппа сыграл 21-летний философ Джорджо Агамбен. Писатели Хуан Родольфо Вилькок и Наталия Гинзбург сыграли Каиафу и Марию из Вифании соответственно.В фильме состоялся дебют Нинетто Даволи в роли без слов (сыграл пастора), однако в титрах не был упомянут. Позднее актёр станет постоянным участником фильмов Пазолини.Пазолини ездил на Святую землю, но нашёл её непригодной для съёмок и чрезмерно «коммерциализированной».На роль Иисуса Пазолини хотел пригласить Евгения Евтушенко.На съемках фильма ассистировал тогда ещё никому неизвестный Бертолуччи.
Фильм был отмечен на МКФ в Венеции Большим призом экуменистического жюри, действующего от имени Ватикана.
Фильм был номинирован в 1966 году на Оскар в номинациях:
Лучшая работа художника-постановщика/декоратора,
Лучший дизайн костюмов (Данило Донати),
Лучшая музыка.
Доп. информация: Диск взят из собственной коллекции.
Бонусы: Фильмографии.
Сэмпл: http://sendfile.su/1085524
Выбор натуры в Палестине для «Евангелия от Матфея» / Sopralluoghi in Palestina per il vangelo secondo Matteo (Пьер Паоло Пазолини / Pier Paolo Pasolini)
Тип релиза: DVD9 - BDRip 720p
Контейнер: DVD-Video
Видео: NTSC 4:3 (720x480) VBR
Аудио: Russian (Dolby AC3, 192 Кбит/сек, 2 ch)
Аудио 2: Italiano (Dolby AC3, 192 Кбит/сек, 2 ch)
Формат субтитров: hardsub (неотключаемые)

DVDInfo

Size: 6.41 Gb ( 6 717 512 KBytes ) - DVD-9
Enabled regions: 1, 2, 3, 4, 5, 6, 7, 8
VTS_01 :
Play Length: 00:00:37
Video: NTSC 4:3 (720x480) VBR
Audio:
Russian (Dolby AC3, 2 ch)
VTS_02 :
Play Length: 02:17:02
Video: NTSC 4:3 (720x480) VBR
Audio:
Russian (Dolby AC3, 2 ch)
Italiano (Dolby AC3, 2 ch)
VTS_03 :
Play Length: 00:00:41+00:00:31+00:00:33+00:00:32+00:00:30+00:00:34
Video: NTSC 4:3 (720x480) VBR
Audio:
Russian (Dolby AC3, 2 ch)
Menu Video:
NTSC 4:3 (720x480) VBR
Menu Subtitles:
Not specified
Menu Russian Language Unit :
Root Menu
Chapter (PTT) Menu
Audio Menu
Angle menu

MediaInfo

Общее
Полное имя : M:\Il vangelo secondo Matteo_1962\VIDEO_TS\VTS_02_1.VOB
Формат : MPEG-PS
Размер файла : 1024 Мбайт
Продолжительность : 21 м.
Общий поток : 6508 Кбит/сек
Видео
Идентификатор : 224 (0xE0)
Формат : MPEG Video
Версия формата : Version 2
Профиль формата : Main@Main
Параметр BVOP формата : Да
Параметр матрицы формата : Выборочная
Параметр GOP формата : M=3, N=15
Продолжительность : 21 м.
Битрейт : 6000 Кбит/сек
Ширина : 720 пикселей
Высота : 480 пикселей
Соотношение сторон : 4:3
Частота кадров : 29,970 кадров/сек
Стандарт вещания : NTSC
Цветовое пространство : YUV
Субдискретизация насыщенности : 4:2:0
Битовая глубина : 8 бит
Тип развёртки : Чересстрочная
Порядок развёртки : Верхнее поле первое
Метод сжатия : С потерями
Бит/(Пиксели*Кадры) : 0.579
Размер потока : 943 Мбайт (92%)
Аудио #1
Идентификатор : 189 (0xBD)-128 (0x80)
Формат : AC-3
Формат/Информация : Audio Coding 3
Расширение режима : CM (complete main)
Параметр Endianness формата : Big
Режим смешивания : DVD-Video
Продолжительность : 21 м.
Вид битрейта : Постоянный
Битрейт : 192 Кбит/сек
Каналы : 2 канала
Расположение каналов : Front: L R
Частота : 48,0 КГц
Битовая глубина : 16 бит
Метод сжатия : С потерями
Задержка видео : -66 мс.
Размер потока : 30,2 Мбайт (3%)
Аудио #2
Идентификатор : 189 (0xBD)-129 (0x81)
Формат : AC-3
Формат/Информация : Audio Coding 3
Расширение режима : CM (complete main)
Параметр Endianness формата : Big
Режим смешивания : DVD-Video
Продолжительность : 21 м.
Вид битрейта : Постоянный
Битрейт : 192 Кбит/сек
Каналы : 2 канала
Расположение каналов : Front: L R
Частота : 48,0 КГц
Битовая глубина : 16 бит
Метод сжатия : С потерями
Задержка видео : -66 мс.
Размер потока : 30,2 Мбайт (3%)
Меню

Постеры

Скриншоты меню

[teatrix.ru].t7203.torrent 
Торрент: Зарегистрирован [ 2015-10-11 11:22 ] · CFC0E06440BBCBA372EAE6EA94D6D2C96704CD38

Скачать .torrent

Скачать

34 KB

Статус: проверено
Скачан: 0 раз
Размер: 6.41 GB
terms.php



Быстрый ответ

Имя:

      
Для отправки сообщений необходимо включить JavaScript
Показать сообщения:    

Текущее время: 02-Дек 21:08

Часовой пояс: UTC + 3


Вы можете начинать темы
Вы можете отвечать на сообщения
Вы не можете редактировать свои сообщения
Вы не можете удалять свои сообщения
Вы не можете голосовать в опросах
Вы не можете прикреплять файлы к сообщениям
Вы можете скачивать файлы