Винсент / Жизнь и смерть Винсента Ван Гога / Vincent / The Life and Death of Vincent Van Gogh (Пол Кокс / Paul Cox) [1987, Австралия, Бельгия, документальный, биография, драма, DVD9 (Custom)] [4:3 NTSC R1] VO + Original Eng


Статистика раздачи [Обновить пиров]
Размер:  7.21 GB   |    Зарегистрирован:  1 год 1 месяц   |    Скачан:  0 раз

Полного источника не было: Никогда

 
   
 
 
 

[Цитировать]

Винсент / Жизнь и смерть Винсента Ван Гога
Vincent / The Life and Death of Vincent Van Gogh
4:3 NTSC R1
Страна: Австралия, Бельгия
Студия: Daska Films, Kultureel Centrum Vooruit, Illumination Films, Look
Жанр: документальный, биография, драма
Год выпуска: 1987
Продолжительность: 01:35:15
Перевод: Профессиональный (одноголосый закадровый)
Cубтитры: нет
Оригинальная аудиодорожка: английский
Режиссер: Пол Кокс / Paul Cox
В ролях: Джон Хёрт (закадровый текст), Марика Ривера, Gabriella Trsek ...
Описание: Этот фильм-размышление основан на письмах Винсента Ван Гога, написанных им брату Тео.
Доп. информация: Диск собран из Vincent_1987_DVD9 R1 найденного в сети. (Который на постере)
Бонусы:
Featurette: A Journey With Paul Cox (55:00)
Filmmaker Biographies
Filmmaker Biography
Vincent Van Gogh Biography
About Docurama
Credits

Catalog/Trailers

The 11th of September
Absolutely Positive
A Decade Under the Influence
Always a Bridesmaid
American Nightmare
The Atomic Café
The Awful Truth: The Complete Series
Baadasssss Cinema
Be Good, Smile Pretty
Best Boy/Best Man
Blue Vinyl
Bob Dylan: Don't Look Back - Play Trailer
Bob Dylan: Don't Look Back
The Brandon Teena Story
Brother's Keeper - Play Trailer
Brother's Keeper
The Children of Chabannes
Children Underground
Chop Socky
Color of a Brisk and Leaping Day
Crisis
Dancing to New Orleans
Death: A Love Story
The Edward R. Murrow Collection
Eric Bogosian: Wake Up and Smell the Coffee
Farmingville
Faster
Fastpitch
The First Amendment Project
The First Year
From Mao to Mozart
Full Frame Documentary Shorts, Vol. 1
Full Frame Documentary Shorts, Vol. 2
Full Frame Documentary Shorts, Vol. 3
Genghis Blues
Go Tigers! - Play Trailer
Go Tigers!
Gray Matter
Guerrilla: The Taking of Patty Hearst
High School Boot Camp
I Am a Promise
Independent's Day
It Was a Wonderful Life
John Lee Hooker
Jupiter's Wife
Keep the River on Your Right - Play Trailer
Keep the River on Your Right
Ladysmith Black Mambazo: On Tip Toe
Last Man Standing
The Last Round: Chuvalo vs. Ali
The Legend of Ron Jeremy - Play Trailer
The Legend of Ron Jeremy
Lost Boys of Sudan
Lost in La Mancha - Play Trailer
Lost in La Mancha
The Main Stream
Maya Lin: A Strong Clear Vision
Moon Over Broadway
Murder on a Sunday Morning
My Flesh and Blood
My Knees Were Jumping
Nadja Salerno-Sonnenberg: Speaking in Strings
Naked States
Neil Gaiman's a Short Film About John Bolton
A Night in Havana: Dizzy Gillespie in Cuba
Nine Good Teeth
Noam Chomsky: Rebel Without a Pause
Off the Menu: The Last Days of Chasen's
On the Road With Duke Ellington
Original Cast Album: Company
Pandemic: Facing AIDS
Paradise Lost 2: Revelations
Partisans of Vilna
Paul Taylor: Dancemaker
Pie in the Sky: The Brigid Berlin Story
Primary
Radio Bikini
Regret to Inform
Rivers and Tides
Rocked With Gina Gershon
Roots of Rhythm
Same River Twice
Scared Straight!
See How They Run
Shanghai Ghetto
Shaolin Ulysses
Silverlake Life: The View From Here
Sing Faster: The Stagehand's Ring Cycle
Sister Helen
Slasher
The Smashing Machine - Play Trailer
The Smashing Machine
Smothered
Sophie B. Hawkins: The Cream Will Rise
Sound and Fury
Southern Comfort
Speedo
The Sweetest Sound
Taking On the Kennedys
Todd McFarlane: The Devil You Know
The True Meaning of Pictures
Tying the Knot
V-Day: Until the Violence Stops
The Weather Underground - Play Trailer
The Weather Underground
When the Mountains Tremble
William Gibson: No Maps for These Territories
W.I.S.O.R.
WTC: The First 24 Hours
Меню: Статичное, неозвученное, на английском.Меню неотредактировано, переключение звуковых дорожек с пульта.
Фильм автоматически стартует с рус. звук. дорожкой.
-- --Vincent_1987_DVD9 R1_Sample_.rar-
-

Точка перехода на второй слой


-
-Тип релиза: DVD9 (Custom)
Контейнер: DVD-Video
Видео: NTSC 4:3 (720x480) VBR, ~ 6039.10 kbps avg
Аудио 1: English, AC3, 2/0 (L,R) ch, 224 kbps, Delay 0 mSec
Аудио 2: Russian, AC3, 2/0 (L,R) ch, 192 kbps, Delay 0 mSec

MediaInfo

General
Complete name : Vincent_1987_DVD9 R1\VIDEO_TS\VTS_01_2.VOB
Format : MPEG-PS
File size : 1 024 MiB
Duration : 24mn 12s
Overall bit rate mode : Variable
Overall bit rate : 5 914 Kbps
Video
ID : 224 (0xE0)
Format : MPEG Video
Format version : Version 2
Format profile : Main@Main
Format settings, BVOP : Yes
Format settings, Matrix : Default
Format settings, GOP : M=3, N=13
Duration : 24mn 12s
Bit rate mode : Variable
Bit rate : 5 381 Kbps
Maximum bit rate : 8 500 Kbps
Width : 720 pixels
Height : 480 pixels
Display aspect ratio : 4:3
Frame rate : 29.970 fps
Standard : NTSC
Color space : YUV
Chroma subsampling : 4:2:0
Bit depth : 8 bits
Scan type : Interlaced
Scan order : Top Field First
Compression mode : Lossy
Bits/(Pixel*Frame) : 0.519
Time code of first frame : 00:24:16:06
Time code source : Group of pictures header
Stream size : 931 MiB (91%)
Color primaries : BT.601 NTSC
Transfer characteristics : BT.601
Matrix coefficients : BT.601
Audio #1
ID : 189 (0xBD)-128 (0x80)
Format : AC-3
Format/Info : Audio Coding 3
Mode extension : CM (complete main)
Format settings, Endianness : Big
Muxing mode : DVD-Video
Duration : 24mn 12s
Bit rate mode : Constant
Bit rate : 224 Kbps
Channel(s) : 2 channels
Channel positions : Front: L R
Sampling rate : 48.0 KHz
Bit depth : 16 bits
Compression mode : Lossy
Delay relative to video : -489ms
Stream size : 38.8 MiB (4%)
Audio #2
ID : 189 (0xBD)-129 (0x81)
Format : AC-3
Format/Info : Audio Coding 3
Mode extension : CM (complete main)
Format settings, Endianness : Big
Muxing mode : DVD-Video
Duration : 24mn 12s
Bit rate mode : Constant
Bit rate : 192 Kbps
Channel(s) : 2 channels
Channel positions : Front: L R
Sampling rate : 48.0 KHz
Bit depth : 16 bits
Compression mode : Lossy
Delay relative to video : -457ms
Stream size : 33.2 MiB (3%)
Menu

DVD Info

Title: Vincent_1987_DVD9 R1
Size: 7.21 Gb ( 7 563 654,00 KBytes ) - DVD-9
Enabled regions: 1, 2, 3, 4, 5, 6, 7, 8
VTS_01 :
Play Length: 00:02:18+01:35:15+00:02:17+00:01:59+00:55:09+00:03:20+00:02:30+00:02:26+00:01:30+00:02:01+00:02:15
Video: NTSC 4:3 (720x480) VBR
Audio:
English (Dolby AC3, 2 ch)
Russian (Dolby AC3, 2 ch)
* Menus Information *
VIDEO_TS Menu
Video:
NTSC 4:3 (720x480) VBR
English Language Unit :
Title Menu
VTS_01 Menu
Video:
NTSC 4:3 (720x480) VBR
Audio:
Not specified (Dolby AC3, 8 ch)
English Language Unit :
Root Menu

П. О.

PgcDemux 1.2.0.5 - разделение компонентов диска на файлы;
BeSweetv1.5b31+BeLight 0.21 - AC3, mp3 -> Wav
Sound Forge pro 10 - Wav -> AC3
MuxMan DVD authoring Professional 1.4.4 - мультиплексирование и авторинг DVD;
DVDRemake Pro 3.6.4 - реавторинг DVD;
DVD Shrink 3.2 - Сэмпл
VLC - Скриншоты-
-
-

-
-
-BeSweet v1.5b31 by DSPguru.
--------------------------
Using azid.dll v1.9 (b922) by Midas (midas@egon.gyaloglo.hu).
Logging start : 02/09/15 , 22:05:02.
BeSweet.exe -core( -input C:\Temp\VAN\AudioFile_80.ac3 -output C:\Temp\VAN\AudioFile_80.wav -2ch -logfile C:\Temp\VAN\AudioFile_80.log ) -azid( -s mono -c normal -L -3db )
[00:00:00:000] +------- BeSweet -----
[00:00:00:000] | Input : C:\Temp\VAN\AudioFile_80.ac3
[00:00:00:000] | Output: C:\Temp\VAN\AudioFile_80.wav
[00:00:00:000] | Floating-Point Process: No
[00:00:00:000] +-------- AZID -------
[00:00:00:000] | Input Channels Mode: 2/0, Bitrate: 224kbps
[00:00:00:000] | Output Stereo mode: Dolby surround 2 compatible
[00:00:00:000] | Total Gain: 0.000dB, Compression: Normal
[00:00:00:000] | LFE levels: To LR -3.0dB, To LFE 0.0dB
[00:00:00:000] | Center mix level: BSI
[00:00:00:000] | Surround mix level: BSI
[00:00:00:000] | Dialog normalization: No
[00:00:00:000] | Rear channels filtering: No
[00:00:00:000] | Source Sample-Rate: 48.0KHz
[00:00:00:000] +---------------------
[01:35:21:504] Conversion Completed !
[01:35:21:504] Actual Avg. Bitrate : 34kbps
[00:02:03:000]
[teatrix.ru].t7207.torrent 
Торрент: Зарегистрирован [ 2015-10-11 11:22 ] · A8BF2DCC90BF225A6F867BE000789C3A614A98FF

Скачать .torrent

Скачать

37 KB

Статус: проверено
Скачан: 0 раз
Размер: 7.21 GB
terms.php



Быстрый ответ

Имя:

      
Для отправки сообщений необходимо включить JavaScript
Показать сообщения:    

Текущее время: 05-Дек 01:26

Часовой пояс: UTC + 3


Вы можете начинать темы
Вы можете отвечать на сообщения
Вы не можете редактировать свои сообщения
Вы не можете удалять свои сообщения
Вы не можете голосовать в опросах
Вы не можете прикреплять файлы к сообщениям
Вы можете скачивать файлы