Уайти / Whity (Райнер Вернер Фассбиндер / Rainer Werner Fassbinder) [1971, Германия (ФРГ), Драма, Вестерн, DVD9 (Custom)] MVO + DVO + Sub Eng, Rus + Original Ger / Fantoma


Статистика раздачи [Обновить пиров]
Размер:  6.35 GB   |    Зарегистрирован:  1 год 1 месяц   |    Скачан:  0 раз

Полного источника не было: Никогда

 
   
 
 
 

[Цитировать]

Уайти / Whity / Fantoma
Страна:Германия (ФРГ)
Студия:Antiteater-X-Film, Atlantis Film.
Жанр:Драма, Вестерн
Год выпуска:1971
Продолжительность:01:35:21
Производитель:FantomaПеревод 1:Профессиональный (многоголосый закадровый)Перевод 2:Профессиональный (двухголосый закадровый)
Cубтитры:Английские, Русские
Оригинальная аудиодорожка:Немецкий
Премьера (мир):2.07.1971
Режиссер:Райнер Вернер Фассбиндер / Rainer Werner FassbinderВ ролях:Рон Рэнделл, Ханна Шигулла, Катрин Шааке, Харри Баэр, Улли Ломмель, Томаш Мартин Бланко, Стефано Каприати, Илэйн Бэйкер, Марк Сэлведж, Хельга Баллхаус
Описание:1870-е годы. Действие происходит где-то на недавно завоеванном Западе. В доме хмурого нувориша мистера Николсона проживают его красивая молодая жена и двое сыновей от первого брака. Один — гомосексуалист, склонный к трансвестизму, второй — попросту умственно-отсталый.
Всей компании прислуживает рослый мулат с ироническим прозвищем «Уайти» (Беленький). Он изо всех сил старается угодить господам, но их эксцентричные аппетиты только растут…

Доп. информация:Исходник найден в сети.Профессиональный (многоголосый, закадровый) и русские субтитрывзят из раздачи semicolor-Профессиональный (двухголосый, закадровый)Реавторинг Нордер.Огромное Спасибо Всем, без чьей помощи этот релиз не состоялся бы!Сценарий:Райнер Вернер ФассбиндерПродюсер:Улли Ломмель, Петер Берлинг, Пер РабенОператор:Михаэль Балльхаус
Композитор:Пер Рабен
Художник:Курт РаабМонтаж:Теа Эймеш, Райнер Вернер Фассбиндер
Фасбиндер, Райнер Вернер-https://ru.wikipedia.org/wiki/Фасбиндер,_Райнер_Вернер Фильм-https://uk.wikipedia.org/wiki/ВайтіНаграды и номинации">

Это интересноФасбиндер, Райнер Вернер-https://ru.wikipedia.org/wiki/Фасбиндер,_Райнер_Вернер Фильм-https://uk.wikipedia.org/wiki/ВайтіНаграды и номинации



Рецензия

Софт

PGCDemux (извлечение).
BeSweet, Sony Vegas 9 (звук).
DVD-lab PRO 2, Subtitle Workshop (субтитры).
MuxMan (сборка). DvdReMakePro (финал).

Бонусы:(Без перевода)

Аудио комментарий-Михаэль Балльхаус, Улли Ломмель.
Меню:Английский, анимированное, озвученное.Сэмпл :http://multi-up.com/1029747
Тип релиза:DVD9 (Custom)
Контейнер:DVD-Video
Видео:NTSC 16:9 (720x480) VBR, Auto Letterboxed, 8353 Кбит/сек, 23,976 кадра/сек
Аудио 1:Немецкий:AC3, 1 ch, 48.0 KHz, 192 Кбит/сек / (Оригинал)Аудио 2: Английский:AC3, 1 ch, 48.0 KHz, 192 Кбит/сек / Комментарий Михаэль Балльхаус, Улли Ломмель.Аудио 3: Русский:AC3, 2 ch, 48.0 KHz, 192 Кбит/сек / Профессиональный (многоголосый, закадровый)
Аудио 4: Русский:AC3, 2 ch, 48.0 KHz, 192 Кбит/сек / Профессиональный (двухголосый, закадровый)
Формат субтитров:prerendered (DVD/IDX+SUB)

Dvd Info

Title: Whity DVD-9_Custom
Size: 6.35 Gb ( 6 658 696,00 KBytes ) - DVD-9
Enabled regions: 1, 2, 3, 4, 5, 6, 7, 8
VTS_01 :
Play Length: 01:35:21+00:00:25
Video: NTSC 16:9 (720x480) VBR, Auto Letterboxed
Audio:
Deutsch (Dolby AC3, 1 ch)
English (Dolby AC3, 1 ch)
Russian (Dolby AC3, 2 ch)
Russian (Dolby AC3, 2 ch)
Subtitles:
English
Russian
VTS_02 :
Play Length: 00:00:21
Video: NTSC 16:9 (720x480) VBR, Auto Pan&Scan
Audio:
Not specified (Dolby AC3, 2 ch)

MediaInfo

Общее
Полное имя: F:\Whity DVD-9_Custom\VIDEO_TS\VTS_01_1.VOB
Формат : MPEG-PS
Размер файла : 1024 Мбайт
Продолжительность : 15 м.
Режим общего битрейта : Переменный
Общий поток : 9306 Кбит/сек
Видео
Идентификатор : 224 (0xE0)
Формат : MPEG Video
Версия формата : Version 2
Профиль формата : Main@Main
Параметр BVOP формата : Да
Параметр матрицы формата : Выборочная
Параметр GOP формата : M=3, N=12
Продолжительность : 15 м.
Вид битрейта : Переменный
Битрейт : 8353 Кбит/сек
Максимальный битрейт : 9800 Кбит/сек
Ширина : 720 пикселей
Высота : 480 пикселей
Соотношение сторон : 16:9
Частота кадров : 23,976 кадра/сек
Стандарт вещания : Component
Цветовое пространство : YUV
Субдискретизация насыщенности : 4:2:0
Битовая глубина : 8 бит
Тип развёртки : Прогрессивная
Порядок развёртки : 2:3 Pulldown
Метод сжатия : С потерями
Бит/(Пиксели*Кадры) : 1.008
Временной код первого кадра : 01:00:10:09
Оригинал временного кода : Group of pictures header
Размер потока : 919 Мбайт (90%)
Основные цвета : BT.601 NTSC
Характеристики трансфера : BT.601
Коэффициенты матрицы : BT.601
Аудио #1
Идентификатор : 189 (0xBD)-128 (0x80)
Формат : AC-3
Формат/Информация : Audio Coding 3
Расширение режима : CM (complete main)
Параметр Endianness формата : Big
Режим смешивания : DVD-Video
Продолжительность : 15 м.
Вид битрейта : Постоянный
Битрейт : 192 Кбит/сек
Каналы : 1 канал
Расположение каналов : Front: C
Частота : 48,0 КГц
Битовая глубина : 16 бит
Метод сжатия : С потерями
Размер потока : 21,1 Мбайт (2%)
Аудио #2
Идентификатор : 189 (0xBD)-129 (0x81)
Формат : AC-3
Формат/Информация : Audio Coding 3
Расширение режима : CM (complete main)
Параметр Endianness формата : Big
Режим смешивания : DVD-Video
Продолжительность : 15 м.
Вид битрейта : Постоянный
Битрейт : 192 Кбит/сек
Каналы : 1 канал
Расположение каналов : Front: C
Частота : 48,0 КГц
Битовая глубина : 16 бит
Метод сжатия : С потерями
Размер потока : 21,1 Мбайт (2%)
Аудио #3
Идентификатор : 189 (0xBD)-130 (0x82)
Формат : AC-3
Формат/Информация : Audio Coding 3
Расширение режима : CM (complete main)
Параметр Endianness формата : Big
Режим смешивания : DVD-Video
Продолжительность : 15 м.
Вид битрейта : Постоянный
Битрейт : 192 Кбит/сек
Каналы : 2 канала
Расположение каналов : Front: L R
Частота : 48,0 КГц
Битовая глубина : 16 бит
Метод сжатия : С потерями
Размер потока : 21,1 Мбайт (2%)
Аудио #4
Идентификатор : 189 (0xBD)-131 (0x83)
Формат : AC-3
Формат/Информация : Audio Coding 3
Расширение режима : CM (complete main)
Параметр Endianness формата : Big
Режим смешивания : DVD-Video
Продолжительность : 15 м.
Вид битрейта : Постоянный
Битрейт : 192 Кбит/сек
Каналы : 2 канала
Расположение каналов : Front: L R
Частота : 48,0 КГц
Битовая глубина : 16 бит
Метод сжатия : С потерями
Размер потока : 21,1 Мбайт (2%)
Текст #1
Идентификатор : 189 (0xBD)-32 (0x20)
Формат : RLE
Формат/Информация : Run-length encoding
Режим смешивания : DVD-Video
Текст #2
Идентификатор : 189 (0xBD)-33 (0x21)
Формат : RLE
Формат/Информация : Run-length encoding
Режим смешивания : DVD-Video
Текст #3
Идентификатор : 189 (0xBD)-34 (0x22)
Формат : RLE
Формат/Информация : Run-length encoding
Режим смешивания : DVD-Video
Задержка видео : 1 с. 201 мс.

Скриншоты меню

Скриншоты

Скриншоты доп. материалов

Полиграфия


[teatrix.ru].t7219.torrent 
Торрент: Зарегистрирован [ 2015-10-11 11:22 ] · D021EED9FF398059E8316CDFEF69927720CCF41A

Скачать .torrent

Скачать

33 KB

Статус: проверено
Скачан: 0 раз
Размер: 6.35 GB
terms.php



Быстрый ответ

Имя:

      
Для отправки сообщений необходимо включить JavaScript
Показать сообщения:    

Текущее время: 08-Дек 03:10

Часовой пояс: UTC + 3


Вы можете начинать темы
Вы можете отвечать на сообщения
Вы не можете редактировать свои сообщения
Вы не можете удалять свои сообщения
Вы не можете голосовать в опросах
Вы не можете прикреплять файлы к сообщениям
Вы можете скачивать файлы