Зази в метро / Zazie dans le métro/ Zazie in the Metro (Луи Малль / Louis Malle) [1960, Франция, Италия, фэнтези, комедия, DVD9 (Custom)] MVO + DVO (студия Пифагор) +MVO(ОРТ)+ VO + Sub Eng, Rus + Original / The Criterion Collection #570


Статистика раздачи [Обновить пиров]
Размер:  7.94 GB   |    Зарегистрирован:  1 год 1 месяц   |    Скачан:  0 раз

Полного источника не было: Никогда

 
   
 
 
 

[Цитировать]

Зази в метро / Zazie dans le metro/ Zazie in the Metro / The Criterion Collection #570 «Louis Malle's Comedy With No Holds Barred !»
Страна:Франция, Италия
Студия:Nouvelles Editions de Films
Жанр:Фэнтези, Комедия
Год выпуска:1960
Продолжительность:01:32:42
Производитель:The Criterion Collection #570
Перевод 1:Профессиональный (многоголосый закадровый)
Перевод 2:Профессиональный (двухголосый закадровый) студия Пифагор по заказу тк Культура
Перевод 3:Профессиональный (многоголосый закадровый) ОРТПеревод 4:Одноголосый закадровыйCубтитры:Английские, Русские
Оригинальная аудиодорожка:Французский
Премьера (мир):28.10.1960
Режиссер:Луи Малль / Louis MalleВ ролях:Катрин Демонжо,Филипп Нуаре,Юбер Дешам,Карла Марлье,Анни Фрателлини,Витторио Каприоли,Жак Дюфило,Ивонн Клеш,Одетт Пике,Николя Батай,Марк Делшниц, Жак Гёзи, Кристин Ховард
Описание:Сумасбродные приключения 11-летней провинциальной девчонки Зази в Париже, которая желала во что бы то ни стало увидеть метро, но так и не попала в него за свой недолгий срок пребывания во французской столице. Зази приезжает в Париж вместе с матерью, которая сразу отправляется к своему любовнику, оставив дочь на попечение дяди Габриэля.
Доп. информация:Исходник найден в сети.
Профессиональный (многоголосый закадровый)+
Профессиональный (одноголосый, закадровый)-студия Пифагор по заказу тк Культура, Одноголосый (закадровый) + Русские субтитрыПрофессиональный (многоголосый закадровый) ОРТ предоставил dzdz33.
Реавторинг Нордер.Огромное Спасибо Всем, без чьей помощи этот релиз не состоялся бы!Сценарий:Луи Маль, Жан-Поль Раппено, Раймон КеноПродюсер:Луи Маль, Жан-Франсуа Малль, Наполеон МюраОператор:Анри Рэши
Композитор:Фьоренцо Карпи, Андре Понтен
Художник:Бернард Эвейн, Марк Делшниц
Монтаж:Кену Пелтье

Софт

PGCDemux (извлечение).
BeSweet, Sony Vegas 9 (звук).
DVD-lab PRO 2, Subtitle Workshop (субтитры).
MuxMan (сборка). DvdReMakePro (финал).

Бонусы:(Без перевода)

- New high-definition digital restoration
- Archival video interviews with director Louis Malle, novelist Raymond Queneau, actress Catherine Demongeot, and screenwriter Jean-Paul Rappeneau
- New audio interview with director and photographer William Klein, artistic consultant on the film
- Le Paris de Zazie, a 2005 video piece featuring assistant director Philippe Collin
- Original theatrical trailer
- New and improved English subtitle translation
Меню:Английский, статичное, озвученное.Сэмпл :http://multi-up.com/1028072
Тип релиза:DVD9 (Custom)
Контейнер:DVD-Video
Видео:NTSC 4:3 (720x480) VBR, 7354 Кбит/сек, 23,976 кадра/сек
Аудио 1:Русский: AC3, 2/0 (L,R) ch,48.0 KHz, 192 kbps Профессиональный (многоголосый закадровый)
Аудио 2:Русский: AC3, 2/0 (L,R) ch,48.0 KHz, 192 kbps Профессиональный (одноголосый, закадровый) -студия ПифагорАудио 3:Русский: AC3, 2/0 (L,R) ch,48.0 KHz, 192 kbps Профессиональный (многоголосый закадровый) ОРТАудио 4:Русский: AC3, 2/0 (L,R) ch,48.0 KHz, 192 kbps Одноголосый (закадровый)Аудио 5:Французский:AC3,1/0ch (Front:C ), 48.0 KHz, 192 Kbps (Оригинал)Формат субтитров:prerendered (DVD/IDX+SUB)

Dvd Info

Title: Zazie dans le metro DVD-9_Custom_Criterion#570
Size: 7.94 Gb ( 8 325 690,00 KBytes ) - DVD-9
Enabled regions: 1, 2, 3, 4, 5, 6, 7, 8
VTS_01 :
Play Length: 00:00:00
Video: NTSC 4:3 (720x480) VBR
VTS_02 :
Play Length: 00:04:53
Video: NTSC 4:3 (720x480) VBR
Audio:
Francais, AC3, 1/0 (C) ch, 192 kbps, Delay 0 mSec
Subtitles:
English
VTS_03 :
Play Length: 00:09:20
Video: NTSC 4:3 (720x480) VBR
Audio:
Francais, AC3, 1/0 (C) ch, 192 kbps, Delay 0 mSec
Subtitles:
English
VTS_04 :
Play Length: 00:07:38
Video: NTSC 4:3 (720x480) VBR
Audio:
Francais, AC3, 1/0 (C) ch, 192 kbps, Delay 0 mSec
Subtitles:
English
VTS_05 :
Play Length: 01:32:42
Video: NTSC 4:3 (720x480) VBR
Audio:
Russian, AC3, 2/0 (L,R) ch, 192 kbps, Delay 0 mSec
Russian, AC3, 2/0 (L,R) ch, 192 kbps, Delay 0 mSec
Russian, AC3, 2/0 (L,R) ch, 192 kbps, Delay 0 mSec
Russian, AC3, 2/0 (L,R) ch, 192 kbps, Delay 0 mSec
Francais, AC3, 1/0 (C) ch, 192 kbps, Delay 0 mSec
Subtitles:
English
Russian
VTS_06 :
Play Length: 00:00:20
Video: NTSC 4:3 (720x480) VBR
VTS_07 :
Play Length: 00:02:17
Video: NTSC 4:3 (720x480) VBR
Audio:
Francais, AC3, 1/0 (C) ch, 192 kbps, Delay 0 mSec
Subtitles:
English
VTS_08 :
Play Length: 00:05:52
Video: NTSC 4:3 (720x480) VBR
Audio:
Francais, AC3, 1/0 (C) ch, 192 kbps, Delay 0 mSec
Subtitles:
English
VTS_09 :
Play Length: 00:14:59
Video: NTSC 4:3 (720x480) VBR
Audio:
Francais, AC3, 1/0 (C) ch, 192 kbps, Delay 0 mSec
Subtitles:
English
VTS_10 :
Play Length: 00:10:00
Video: NTSC 4:3 (720x480) VBR
Audio:
Francais, AC3, 1/0 (C) ch, 192 kbps, Delay 0 mSec
Subtitles:
English
VTS_11 :
Play Length: 00:13:04
Video: NTSC 4:3 (720x480) VBR
Audio:
English, AC3, 1/0 (C) ch, 192 kbps, Delay 0 mSec
Subtitles:
English
VTS_12 :
Play Length: 00:00:00
Video: NTSC 4:3 (720x480) VBR

MediaInfo

Общее
Полное имя : F:\НА ПРОСМОТР\Оформление\Zazie dans le métro DVD-9_Custom_Criterion#570\VIDEO_TS\VTS_05_4.VOB
Формат : MPEG-PS
Размер файла : 1024 Мбайт
Продолжительность : 16 м.
Режим общего битрейта : Переменный
Общий поток : 8483 Кбит/сек
Видео
Идентификатор : 224 (0xE0)
Формат : MPEG Video
Версия формата : Version 2
Профиль формата : Main@Main
Параметр BVOP формата : Да
Параметр матрицы формата : Выборочная
Параметр GOP формата : Variable
Продолжительность : 16 м.
Вид битрейта : Переменный
Битрейт : 7354 Кбит/сек
Максимальный битрейт : 9800 Кбит/сек
Ширина : 720 пикселей
Высота : 480 пикселей
Соотношение сторон : 4:3
Частота кадров : 23,976 кадра/сек
Стандарт вещания : NTSC
Цветовое пространство : YUV
Субдискретизация насыщенности : 4:2:0
Битовая глубина : 8 бит
Тип развёртки : Прогрессивная
Порядок развёртки : 2:3 Pulldown
Метод сжатия : С потерями
Бит/(Пиксели*Кадры) : 0.888
Временной код первого кадра : 10:50:43:02
Оригинал временного кода : Group of pictures header
Размер потока : 887 Мбайт (87%)
Аудио #1
Идентификатор : 189 (0xBD)-128 (0x80)
Формат : AC-3
Формат/Информация : Audio Coding 3
Расширение режима : CM (complete main)
Параметр Endianness формата : Big
Режим смешивания : DVD-Video
Продолжительность : 16 м.
Вид битрейта : Постоянный
Битрейт : 192 Кбит/сек
Каналы : 2 канала
Расположение каналов : Front: L R
Частота : 48,0 КГц
Битовая глубина : 16 бит
Метод сжатия : С потерями
Задержка видео : -601 мс.
Размер потока : 23,2 Мбайт (2%)
Аудио #2
Идентификатор : 189 (0xBD)-129 (0x81)
Формат : AC-3
Формат/Информация : Audio Coding 3
Расширение режима : CM (complete main)
Параметр Endianness формата : Big
Режим смешивания : DVD-Video
Продолжительность : 16 м.
Вид битрейта : Постоянный
Битрейт : 192 Кбит/сек
Каналы : 2 канала
Расположение каналов : Front: L R
Частота : 48,0 КГц
Битовая глубина : 16 бит
Метод сжатия : С потерями
Задержка видео : -601 мс.
Размер потока : 23,2 Мбайт (2%)
Аудио #3
Идентификатор : 189 (0xBD)-130 (0x82)
Формат : AC-3
Формат/Информация : Audio Coding 3
Расширение режима : CM (complete main)
Параметр Endianness формата : Big
Режим смешивания : DVD-Video
Продолжительность : 16 м.
Вид битрейта : Постоянный
Битрейт : 192 Кбит/сек
Каналы : 2 канала
Расположение каналов : Front: L R
Частота : 48,0 КГц
Битовая глубина : 16 бит
Метод сжатия : С потерями
Задержка видео : -601 мс.
Размер потока : 23,2 Мбайт (2%)
Аудио #4
Идентификатор : 189 (0xBD)-131 (0x83)
Формат : AC-3
Формат/Информация : Audio Coding 3
Расширение режима : CM (complete main)
Параметр Endianness формата : Big
Режим смешивания : DVD-Video
Продолжительность : 16 м.
Вид битрейта : Постоянный
Битрейт : 192 Кбит/сек
Каналы : 2 канала
Расположение каналов : Front: L R
Частота : 48,0 КГц
Битовая глубина : 16 бит
Метод сжатия : С потерями
Задержка видео : -601 мс.
Размер потока : 23,2 Мбайт (2%)
Аудио #5
Идентификатор : 189 (0xBD)-132 (0x84)
Формат : AC-3
Формат/Информация : Audio Coding 3
Расширение режима : CM (complete main)
Параметр Endianness формата : Big
Режим смешивания : DVD-Video
Продолжительность : 16 м.
Вид битрейта : Постоянный
Битрейт : 192 Кбит/сек
Каналы : 1 канал
Расположение каналов : Front: C
Частота : 48,0 КГц
Битовая глубина : 16 бит
Метод сжатия : С потерями
Задержка видео : -601 мс.
Размер потока : 23,2 Мбайт (2%)
Текст #1
Идентификатор : 189 (0xBD)-32 (0x20)
Формат : RLE
Формат/Информация : Run-length encoding
Режим смешивания : DVD-Video
Задержка видео : 1 с. 835 мс.
Текст #2
Идентификатор : 189 (0xBD)-33 (0x21)
Формат : RLE
Формат/Информация : Run-length encoding
Режим смешивания : DVD-Video
Задержка видео : 1 с. 468 мс.

Скриншоты меню


Скриншоты

Скриншоты доп. материалов



Добавлен Профессиональный (многоголосый закадровый) ОРТ
[teatrix.ru].t7225.torrent 
Торрент: Зарегистрирован [ 2015-10-11 11:22 ] · 0B42FCCD86306077F9FF16D405A8F729FDDDC263

Скачать .torrent

Скачать

43 KB

Статус: проверено
Скачан: 0 раз
Размер: 7.94 GB
terms.php



Быстрый ответ

Имя:

      
Для отправки сообщений необходимо включить JavaScript
Показать сообщения:    

Текущее время: 04-Дек 13:17

Часовой пояс: UTC + 3


Вы можете начинать темы
Вы можете отвечать на сообщения
Вы не можете редактировать свои сообщения
Вы не можете удалять свои сообщения
Вы не можете голосовать в опросах
Вы не можете прикреплять файлы к сообщениям
Вы можете скачивать файлы