Квадрофения / Quadrophenia (Фрэнк Роддэм / Franc Roddam) [1979, Великобритания, Драма, Криминал, Музыка, DVD9 (Custom)+DVD9] MVO (Ryazan Retro Scooters Community) + Sub Eng, Rus(dira) + Original Eng / Criterion Collection#624


Статистика раздачи [Обновить пиров]
Размер:  13.44 GB   |    Зарегистрирован:  1 год 1 месяц   |    Скачан:  0 раз

Полного источника не было: Никогда

 
   
 
 
 

[Цитировать]

Квадрофения / Quadrophenia / Criterion Collection#624 «We are the mods, we are the mods. We are, we are, we are the mods»
Страна:Великобритания
Студия:Polytel, The Who Films.
Жанр:Драма, Криминал, МузыкаГод выпуска:1979
Продолжительность:01:59:53
Производитель:The Criterion Collection #624
Перевод:Любительский (многоголосый закадровый)Ryazan Retro Scooters Community
Cубтитры:Английские, Русский dira
Оригинальная аудиодорожка:Английский
Премьера (мир):14.05.1979
Режиссер:Фрэнк Роддэм / Franc RoddamВ ролях:Фил Дэниелс, Лесли Эш, Филип Дэвис, Марк Уингетт, Стинг, Рэй Уинстон, Гарри Купер, Гари Снейл, Тойа Уиллкокс, Тревор Лэйрд
Описание:Действие картины происходит в 1964 году, а за кадром звучит музыка группы The Who с альбома «Квадрофения». Эпоха первых молодежных бунтов и подлинных переворотов в умонастроениях, нравах и эстетических пристрастиях нового поколения, родившегося в годы войны или сразу после ее окончания. Простой сюжет о поре взросления и утраты наивных юношеских иллюзий приобретает дополнительное измерение.
Жесткая, порой беспощадная режиссура дебютанта Фрэнка Роддэма, ранее работавшего на телевидении, лишает те времена начала «бурных шестидесятых» не только романтически-ностальгического ореола, но и метафорической, иносказательной трактовки, которая была свойственна, например, блистательной рок-опере «Томми» Кена Рассела (тоже на основе альбома группы The Who) или снятой через три года после «Квадрофении» музыкальной притче «Пинк Флойд — Стена» Алана Паркера.
Лента Роддэма гораздо ближе по манере к «кино рассерженных» именно того периода на рубеже 50—60-х годов или к чуть более позднему произведению «Если» Линдсея Андерсона, одного из тех, кто до конца остался верен этому направлению. Постановщик «Квадрофении» понимает подчас уродливые проявления молодежной субкультуры — как рвущийся наружу дух бунтарства, бессознательного протеста против все еще консервативной Англии, как природно заложенное сопротивление молодых косным, устаревшим взглядам и традициям старших. Песня «Моё поколение» группы The Who была гимном английской молодежи начала 60-х годов. А сколько других музыкальных сочинений с иным или точно таким же названием (как, допустим, у Константина Кинчева из «Алисы») становились своеобразным воззванием к юным, выражением их представлений о «буре и натиске» в самые разные времена! И достоинством картины «Квадрофения» является как раз то, что, воспроизводя без прикрас конкретную эпоху, она по своему пафосу развенчания «прекрасных надежд» обращена не в прошлое, а в будущее, воспринимаясь актуально и свежо даже сейчас.

Доп. информация:Исходник найден в сети.
Любительский (многоголосый закадровый)Ryazan Retro Scooters Community
Русские субтитры DiraРеавторинг Нордер.Огромное Спасибо Всем, без чьей помощи этот релиз не состоялся бы!Сценарий:Дейв Хамфриз, Мартин Стеллмен, Фрэнк РоддэмПродюсер:Рой Бейрд, Билл Карбишли, Роджер ДолтриОператор:Брайан ТьюфаноМузыка:группа The Who, Пит Таунсенд, Кит Мун, Джон Энтвистл, Роджер ДолтриХудожник:Саймон ХоллэндМонтаж:Шон Бартон, Майк Тейлор

Софт

PGCDemux (извлечение).
BeSweet, Sony Vegas 9 (звук).
DVD-lab PRO 2, Subtitle Workshop (субтитры).
MuxMan (сборка). DvdReMakePro (финал).

Бонусы:(Без перевода)


Disc 1,2:-
Disc One:
- New, restored digital transfer of the uncut version, supervised by cinematographer Brian Tufano, with the original 2.0 stereo soundtrack as well as an all-new 5.1 surround mix, supervised by the Who.
- New audio commentary featuring director Franc Roddam and Tufano
- Trailers
Disc Two:
- New interview with Bill Curbishley, the film’s coproducer and the Who’s comanager
- New interview with the Who’s sound engineer, Bob Pridden, featuring a discussion of the new mix as well as a restoration demonstration
- Segment on the film from a 1979 episode of the BBC series Talking Pictures, featuring interviews and on-set footage
- Segment from a 1964 episode of the French news program Sept jours du monde, about mods and rockers
- Seize millions de jeunes: “Mods,” a 1965 episode of the French youth-culture program, featuring early footage of the Who
Меню:Английский, анимированное, озвученное.Сэмпл Диск 1:http://multi-up.com/1027967Сэмпл Диск 2:http://multi-up.com/1027968Тип релиза:DVD9 (Custom)+DVD9
Контейнер:DVD-Video
Видео:NTSC 16:9 (720x480) VBR, Auto Letterboxed, 7883 Кбит/сек, 29,970 кадров/сек
Аудио 1:Русский:AC3, 2 ch, 48.0 KHz, 192 Кбит/сек / Любительский (многоголосый закадровый) Ryazan Retro Scooters CommunityАудио 2:Английский:AC3, 6 ch, 48.0 KHz, 448 Кбит/секАудио 3:Английский:AC3, 1 ch, 48.0 KHz, 96 Кбит/сек / Комментарий Franc Roddam and Tufano
Аудио 4:Английский:AC3, 2 ch, 48.0 KHz, 192 Кбит/сек / (Оригинал)Формат субтитров:prerendered (DVD/IDX+SUB)

Dvd Info- Диск 1

Title: Диск 1
Size: 7.85 Gb ( 8 226 292,00 KBytes ) - DVD-9
Enabled regions: 1, 2, 3, 4, 5, 6, 7, 8
VTS_01 :
Play Length: 00:00:00
Video: NTSC 16:9 (720x480) VBR, Auto Letterboxed
VTS_02 :
Play Length: 00:01:38
Video: NTSC 16:9 (720x480) VBR, Auto Letterboxed
Audio:
English, AC3, 1/0 (C) ch, 192 kbps, Delay 0 mSec
VTS_03 :
Play Length: 00:01:14
Video: NTSC 4:3 (720x480) VBR
Audio:
English, AC3, 2/0 (L,R) ch, 192 kbps, Delay 0 mSec
VTS_04 :
Play Length: 01:59:53
Video: NTSC 16:9 (720x480) VBR, Auto Letterboxed
Audio:
Russian, AC3, 2/0 (L,R) ch, 192 kbps, Delay 0 mSec
English, AC3, 3/2 (L,C,R,SL,SR)+LFE ch, 448 kbps, Delay 0 mSec
English, AC3, 1/0 (C) ch, 96 kbps, Delay 0 mSec
English, AC3, 2/0 (L,R) ch, 192 kbps, Delay 0 mSec
Subtitles:
English
Russian
VTS_05 :
Play Length: 00:00:20
Video: NTSC 16:9 (720x480) VBR, Auto Pan&Scan
VTS_06 :
Play Length: 00:00:00
Video: NTSC 4:3 (720x480) VBR

Dvd Info- Диск 2

Title: Диск 2
Size: 5.59 Gb ( 5 866 432,00 KBytes ) - DVD-9
Enabled regions: 1, 2, 3, 4, 5, 6, 7, 8
VTS_01 :
Play Length: 00:00:00
Video: NTSC 16:9 (720x480) VBR, Auto Letterboxed
VTS_02 :
Play Length: 00:26:06
Video: NTSC 4:3 (720x480) VBR
Audio:
English, AC3, 1/0 (C) ch, 192 kbps, Delay 0 mSec
VTS_03 :
Play Length: 00:08:18
Video: NTSC 4:3 (720x480) VBR
Audio:
English, AC3, 1/0 (C) ch, 192 kbps, Delay 0 mSec
Subtitles:
English
VTS_04 :
Play Length: 00:13:41
Video: NTSC 16:9 (720x480) VBR, Auto Letterboxed
Audio:
English, AC3, 2/0 (L,R) ch, 192 kbps, Delay 0 mSec
VTS_05 :
Play Length: 00:07:49
Video: NTSC 16:9 (720x480) VBR, Auto Letterboxed
Audio:
English, AC3, 3/2 (L,C,R,SL,SR)+LFE ch, 448 kbps, Delay 0 mSec
VTS_06 :
Play Length: 00:34:28
Video: NTSC 4:3 (720x480) VBR
Audio:
English, AC3, 1/0 (C) ch, 192 kbps, Delay 0 mSec
Subtitles:
English
VTS_07 :
Play Length: 00:00:00
Video: NTSC 4:3 (720x480) VBR

Mediainfo- Диск 1

Общее
Полное имя: F:\Quadrophenia DVD-9_Custom+DVD9_Criterion#624\Диск 1\VIDEO_TS\VTS_04_1.VOB
Формат : MPEG-PS
Размер файла : 1024 Мбайт
Продолжительность : 15 м.
Режим общего битрейта : Переменный
Общий поток : 8990 Кбит/сек
Видео
Идентификатор : 224 (0xE0)
Формат : MPEG Video
Версия формата : Version 2
Профиль формата : Main@Main
Параметр BVOP формата : Да
Параметр матрицы формата : Выборочная
Параметр GOP формата : Variable
Продолжительность : 15 м.
Вид битрейта : Переменный
Битрейт : 7883 Кбит/сек
Максимальный битрейт : 9600 Кбит/сек
Ширина : 720 пикселей
Высота : 480 пикселей
Соотношение сторон : 16:9
Частота кадров : 29,970 кадров/сек
Стандарт вещания : NTSC
Цветовое пространство : YUV
Субдискретизация насыщенности : 4:2:0
Битовая глубина : 8 бит
Метод сжатия : С потерями
Бит/(Пиксели*Кадры) : 0.761
Временной код первого кадра : 00:00:00:00
Оригинал временного кода : Group of pictures header
Размер потока : 898 Мбайт (88%)
Аудио #1
Идентификатор : 189 (0xBD)-128 (0x80)
Формат : AC-3
Формат/Информация : Audio Coding 3
Расширение режима : CM (complete main)
Параметр Endianness формата : Big
Режим смешивания : DVD-Video
Продолжительность : 15 м.
Вид битрейта : Постоянный
Битрейт : 192 Кбит/сек
Каналы : 2 канала
Расположение каналов : Front: L R
Частота : 48,0 КГц
Битовая глубина : 16 бит
Метод сжатия : С потерями
Размер потока : 21,9 Мбайт (2%)
Аудио #2
Идентификатор : 189 (0xBD)-129 (0x81)
Формат : AC-3
Формат/Информация : Audio Coding 3
Расширение режима : CM (complete main)
Параметр Endianness формата : Big
Режим смешивания : DVD-Video
Продолжительность : 15 м.
Вид битрейта : Постоянный
Битрейт : 448 Кбит/сек
Каналы : 6 каналов
Расположение каналов : Front: L C R, Side: L R, LFE
Частота : 48,0 КГц
Битовая глубина : 16 бит
Метод сжатия : С потерями
Размер потока : 51,0 Мбайт (5%)
Аудио #3
Идентификатор : 189 (0xBD)-130 (0x82)
Формат : AC-3
Формат/Информация : Audio Coding 3
Расширение режима : CM (complete main)
Параметр Endianness формата : Big
Режим смешивания : DVD-Video
Продолжительность : 15 м.
Вид битрейта : Постоянный
Битрейт : 96,0 Кбит/сек
Каналы : 1 канал
Расположение каналов : Front: C
Частота : 48,0 КГц
Битовая глубина : 16 бит
Метод сжатия : С потерями
Размер потока : 10,9 Мбайт (1%)
Аудио #4
Идентификатор : 189 (0xBD)-131 (0x83)
Формат : AC-3
Формат/Информация : Audio Coding 3
Расширение режима : CM (complete main)
Параметр Endianness формата : Big
Режим смешивания : DVD-Video
Продолжительность : 15 м.
Вид битрейта : Постоянный
Битрейт : 192 Кбит/сек
Каналы : 2 канала
Расположение каналов : Front: L R
Частота : 48,0 КГц
Битовая глубина : 16 бит
Метод сжатия : С потерями
Размер потока : 21,9 Мбайт (2%)
Текст #1
Идентификатор : 189 (0xBD)-32 (0x20)
Формат : RLE
Формат/Информация : Run-length encoding
Режим смешивания : DVD-Video
Текст #2
Идентификатор : 189 (0xBD)-33 (0x21)
Формат : RLE
Формат/Информация : Run-length encoding
Режим смешивания : DVD-Video
Текст #3
Идентификатор : 189 (0xBD)-34 (0x22)
Формат : RLE
Формат/Информация : Run-length encoding
Режим смешивания : DVD-Video

Mediainfo- Диск 2

Общее
Полное имя: F:\Quadrophenia DVD-9_Custom+DVD9_Criterion#624\Диск 2\VIDEO_TS\VTS_02_1.VOB
Формат : MPEG-PS
Размер файла : 1024 Мбайт
Продолжительность : 16 м.
Режим общего битрейта : Переменный
Общий поток : 8935 Кбит/сек
Видео
Идентификатор : 224 (0xE0)
Формат : MPEG Video
Версия формата : Version 2
Профиль формата : Main@Main
Параметр BVOP формата : Да
Параметр матрицы формата : Выборочная
Параметр GOP формата : Variable
Продолжительность : 16 м.
Вид битрейта : Переменный
Битрейт : 8565 Кбит/сек
Максимальный битрейт : 9800 Кбит/сек
Ширина : 720 пикселей
Высота : 480 пикселей
Соотношение сторон : 4:3
Частота кадров : 29,970 кадров/сек
Стандарт вещания : NTSC
Цветовое пространство : YUV
Субдискретизация насыщенности : 4:2:0
Битовая глубина : 8 бит
Тип развёртки : Чересстрочная
Порядок развёртки : Верхнее поле первое
Метод сжатия : С потерями
Бит/(Пиксели*Кадры) : 0.827
Временной код первого кадра : 00:59:59:20
Оригинал временного кода : Group of pictures header
Размер потока : 982 Мбайт (96%)
Аудио
Идентификатор : 189 (0xBD)-128 (0x80)
Формат : AC-3
Формат/Информация : Audio Coding 3
Расширение режима : CM (complete main)
Параметр Endianness формата : Big
Режим смешивания : DVD-Video
Продолжительность : 16 м.
Вид битрейта : Постоянный
Битрейт : 192 Кбит/сек
Каналы : 1 канал
Расположение каналов : Front: C
Частота : 48,0 КГц
Битовая глубина : 16 бит
Метод сжатия : С потерями
Размер потока : 22,0 Мбайт (2%)

Скриншоты меню-Диск 1


Скриншоты фильма-Диск 1

Скриншоты доп. материалов-Диск 1


Скриншоты меню-Диск 2


Скриншоты доп. материалов-Диск 2



[teatrix.ru].t7226.torrent 
Торрент: Зарегистрирован [ 2015-10-11 11:22 ] · 04AB227DB5063300569AF5A6AE1FF645995767AF

Скачать .torrent

Скачать

72 KB

Статус: проверено
Скачан: 0 раз
Размер: 13.44 GB
terms.php



Быстрый ответ

Имя:

      
Для отправки сообщений необходимо включить JavaScript
Показать сообщения:    

Текущее время: 05-Дек 21:39

Часовой пояс: UTC + 3


Вы можете начинать темы
Вы можете отвечать на сообщения
Вы не можете редактировать свои сообщения
Вы не можете удалять свои сообщения
Вы не можете голосовать в опросах
Вы не можете прикреплять файлы к сообщениям
Вы можете скачивать файлы