Ностальгия / Nostalghia (Андрей Тарковский) [1983, Италия, СССР, Драма, BD>DVD5 (Custom)] 2хVO Sub Rus, Eng+original ita


Статистика раздачи [Обновить пиров]
Размер:  4.33 GB   |    Зарегистрирован:  1 год 1 месяц   |    Скачан:  0 раз

Полного источника не было: Никогда

 
   
 
 
 

[Цитировать]

Ностальгия / Nostalghia- Страна: Италия, СССР
Студия: Opera Film Produzione, Rai Due, Совинфильм
Жанр: Драма
Год выпуска: 1983
Продолжительность: 02:05:31-Перевод: Профессиональный одноголосый закадровый Ruscico
Перевод 2: Профессиональный одноголосый закадровый Панков
Cубтитры: русские, английские
Оригинальная аудиодорожка: итальянский-Режиссер: Андрей Тарковский
В ролях: Олег Янковский, Домициана Джордано, Эрланд Юсефсон, Патриция Террено, Делия Боккардо, Лаура Де Марчи, Милена Вукотич, Альберто Канепа, Раффаель Ди Марио
Описание: Русский писатель Андрей Горчаков приезжает в Италию в поисках биографических следов крепостного музыканта Павла Сосновского, некогда посетившего эти места. Поиски примет эмиграционных дней жизни музыканта — это и есть то, что связывает Горчакова c переводчицей Юдженией, беспомощно пытающейся понять причину тоски русского друга посредством томика стихов Арсения Тарковского.
Вскоре Горчаков начинает осознавать, что история музыканта — это отчасти и его собственная история: в Италии он чувствует себя чужим, но и вернуться домой уже не может. Героем овладевает тягостное оцепенение, тоска по родине переходит в болезнь…-Доп. информация: Релиз сделан из ремукса, скаченного в сети. Оттуда же взяты главы, аудиодорожки и субтитры. Меню самодельное. Двд собрал в DVD Lab. Видео сжато Pro Coder в 2 прохода. За столь ценное руководство спасибо Mikky72. Отдельная благодарность уходит ZVNV, который стойко выдержал испытание моими глупыми и не очень вопросами Еще одно спасибо AlsKnight за решение проблемы с кадрами.-
СЭМПЛ
-Меню: Есть, на русском языке, статичное, неозвученное-Тип релиза: DVD5 (Custom)
Контейнер: DVD-Video
Видео: NTSC 16:9 (720x480) VBR
Аудио : Русский (Dolby AC3, 2 ch, 192 кб/с, Ruscico)
Аудио 2: Русский (Dolby AC3, 2 ch, 192 кб/с, Панков)
Аудио 3: Итальянский (Dolby AC3, 2 ch, 192 кб/с)-

MI исходника

Формат : Matroska
Версия формата : Version 2
Размер файла : 34,9 Гбайт
Продолжительность : 2 ч. 5 м.
Общий поток : 39,8 Мбит/сек
Название фильма : Ностальгия.1983.Сборка: ollan
Дата кодирования : UTC 2014-02-07 16:23:05
Программа кодирования : mkvmerge v5.6.0 ('Kenya Kane') built on May 27 2012 16:44:04
Библиотека кодирования : libebml v1.2.3 + libmatroska v1.3.0
Видео
Идентификатор : 1
Формат : AVC
Формат/Информация : Advanced Video Codec
Профиль формата : High@L4.1
Параметр CABAC формата : Да
Параметр ReFrames формата : 4 кадра
Параметр GOP формата : M=3, N=24
Идентификатор кодека : V_MPEG4/ISO/AVC
Продолжительность : 2 ч. 5 м.
Вид битрейта : Постоянный
Номинальный битрейт : 37,0 Мбит/сек
Ширина : 1920 пикселей
Высота : 1080 пикселей
Соотношение сторон : 16:9
Режим частоты кадров : Постоянный
Частота кадров : 23,976 кадра/сек
Стандарт вещания : NTSC
Цветовое пространство : YUV
Субдискретизация насыщенности : 4:2:0
Битовая глубина : 8 бит
Тип развёртки : Прогрессивная
Бит/(Пиксели*Кадры) : 0.744
Default : Да
Forced : Нет
Основные цвета : BT.709
Характеристики трансфера : BT.709
Коэффициенты матрицы : BT.709
Аудио #1
Идентификатор : 2
Формат : AC-3
Формат/Информация : Audio Coding 3
Расширение режима : CM (complete main)
Параметр Endianness формата : Big
Идентификатор кодека : A_AC3
Продолжительность : 2 ч. 5 м.
Вид битрейта : Постоянный
Битрейт : 192 Кбит/сек
Каналы : 2 канала
Расположение каналов : Front: L R
Частота : 48,0 КГц
Битовая глубина : 16 бит
Метод сжатия : С потерями
Размер потока : 173 Мбайт (0%)
Заголовок : VO_Ruscico
Язык : Russian
Default : Да
Forced : Нет
Аудио #2
Идентификатор : 3
Формат : AC-3
Формат/Информация : Audio Coding 3
Расширение режима : CM (complete main)
Параметр Endianness формата : Big
Идентификатор кодека : A_AC3
Продолжительность : 2 ч. 5 м.
Вид битрейта : Постоянный
Битрейт : 192 Кбит/сек
Каналы : 2 канала
Расположение каналов : Front: L R
Частота : 48,0 КГц
Битовая глубина : 16 бит
Метод сжатия : С потерями
Размер потока : 173 Мбайт (0%)
Заголовок : VO_Fox_Lorber
Язык : Russian
Default : Нет
Forced : Нет
Аудио #3
Идентификатор : 4
Формат : AC-3
Формат/Информация : Audio Coding 3
Расширение режима : CM (complete main)
Параметр Endianness формата : Big
Идентификатор кодека : A_AC3
Продолжительность : 2 ч. 5 м.
Вид битрейта : Постоянный
Битрейт : 192 Кбит/сек
Каналы : 2 канала
Расположение каналов : Front: L R
Частота : 48,0 КГц
Битовая глубина : 16 бит
Метод сжатия : С потерями
Размер потока : 173 Мбайт (0%)
Заголовок : VO_Pankov
Язык : Russian
Default : Нет
Forced : Нет
Аудио #4
Идентификатор : 5
Формат : PCM
Идентификатор кодека : A_PCM/INT/LIT
Продолжительность : 2 ч. 5 м.
Вид битрейта : Постоянный
Каналы : 2 канала
Частота : 48,0 КГц
Битовая глубина : 24 бит
Заголовок : Italian, Russian
Default : Нет
Forced : Нет
Текст #1
Идентификатор : 6
Формат : UTF-8
Идентификатор кодека : S_TEXT/UTF8
Идентификатор кодека/Информация : UTF-8 Plain Text
Заголовок : DVD
Язык : Russian
Default : Нет
Forced : Нет
Текст #2
Идентификатор : 7
Формат : UTF-8
Идентификатор кодека : S_TEXT/UTF8
Идентификатор кодека/Информация : UTF-8 Plain Text
Заголовок : Full
Язык : English
Default : Нет
Forced : Нет
Меню
00:00:00.000 : :Chapter 01
00:12:39.425 : :Chapter 02
00:25:36.868 : :Chapter 03
00:35:14.779 : :Chapter 04
00:46:36.376 : :Chapter 05
01:00:41.596 : :Chapter 06
01:11:56.520 : :Chapter 07
01:21:13.243 : :Chapter 08
01:35:40.192 : :Chapter 09
01:48:16.573 : :Chapter 10

DVDInfo

Size: 4.33 Gb ( 4 544 770 KBytes ) - DVD-5
Enabled regions: 1, 2, 3, 4, 5, 6, 7, 8
VTS_01 :
Play Length: 02:05:31
Video: NTSC 16:9 (720x480) VBR, Auto Pan&Scan
Audio:
Russian (Dolby AC3, 2 ch)
Russian (Dolby AC3, 2 ch)
Italiano (Dolby AC3, 2 ch)
Subtitles:
Russian
English
Menu Video:
NTSC 4:3 (720x480) VBR
Menu English Language Unit :
Root Menu
[spoiler="Скриншоты">

Скриншоты меню [spoiler="Скриншоты

Скрипт"]
LoadPlugin("C:\Users\SkyWalker\Desktop\DGDecodeNV\DGDecodeNV.dll")
DGSource("project.dgi") #если в исходнике отсутствуют артефакты
LoadPlugin("C:\Program Files\AutoYUY2\AutoYUY2.dll") #более медленный, но качественный аналог ConvertToYUY2()
AutoYUY2()
LoadPlugin("C:\Program Files\ColorMatrix\ColorMatrix.dll")
ColorMatrix(mode="Rec.709->Rec.601", inputFR=false, clamp=0) #корректировка цветовой шкалы, если проверка показывает 16-235
AssumeFPS("ntsc_film")
BicubicResize(720, 480, 0, 0.5) #ресайз методом Catmull-Rom spline
AddBorders (0,0,0,0) #bbb=00

Программы, используемые при создание этого релиза

Видео
Rhozet Carbon Coder - конвертация видео
AviSynth - обработка видео
DGDecodeNV - индексирование
Програмы для разборки/сборки ДВД
PgcDemux - демукс исходного DVD
tsMuxeR - разборка ремукса
MuxMan - сборка видео
Работа со звуком
TranzcodeGUI - извлечение wav
Sonic Foundry Soft Encode - кодирование и сборка ac3 дорожки
Работа с субтитрами
DVDSubEdit - корректировка таймингов и расположения на экране субтитров
Работа с меню и реавторинг
Adobe Photoshop - редактирование меню
DVDReMakePro - реавторинг диска
[teatrix.ru].t7229.torrent 
Торрент: Зарегистрирован [ 2015-10-11 11:22 ] · B549998082400FA4AA0D6A86D910281B1B04152F

Скачать .torrent

Скачать

23 KB

Статус: проверено
Скачан: 0 раз
Размер: 4.33 GB
terms.php



Быстрый ответ

Имя:

      
Для отправки сообщений необходимо включить JavaScript
Показать сообщения:    

Текущее время: 06-Дек 19:04

Часовой пояс: UTC + 3


Вы можете начинать темы
Вы можете отвечать на сообщения
Вы не можете редактировать свои сообщения
Вы не можете удалять свои сообщения
Вы не можете голосовать в опросах
Вы не можете прикреплять файлы к сообщениям
Вы можете скачивать файлы