Антарес / Antares (Гётц Шпильманн / Gotz Spielmann) [2004, Австрия, Драма, DVD9 (Custom)] AVO (А. Алексеев) + Sub Eng + Original Ger


Статистика раздачи [Обновить пиров]
Размер:  4.72 GB   |    Зарегистрирован:  1 год 1 месяц   |    Скачан:  0 раз

Полного источника не было: Никогда

 
   
 
 
 

[Цитировать]

Антарес / Antares
Страна:Австрия
Студия:Ostereichisches Filminstitut, Osterreichischer Rundfunk (ORF), Filmfonds Wien, Lotus Film, TeamFilm Produktion GesmbH & Co. KG.
Жанр:Драма
Год выпуска:2004
Продолжительность:01:54:52Перевод:Авторский(одноголосый закадровый) А. АлексеевCубтитры:Английские
Оригинальная аудиодорожка:Немецкий
Премьера (мир):5.08.2004
Режиссер:Гётц Шпильманн / Gotz SpielmannВ ролях:Петра Морце, Андреас Паттон, Хари Принц, Сусанна Вуэст, Деннис Кубик, Андреас Киндль, Мартина Зиннер, Ксения Ферхнер, Ангелика Нидецки, Йоханес Танхайзер
Описание:Фильм состоит из трех новелл об ужасах семейной жизни, разворачивающихся в декорациях одной из многоэтажек в венском пригороде. Герои, состоящие в счастливом, казалось бы, браке, беззастенчиво изменяют друг другу, превращая свою жизнь в ад.
Доп. информация:Исходник найден в сети.Авторский(одноголосый закадровый) А. АлексеевРеавторинг Нордер.Огромное Спасибо Всем, без чьей помощи этот релиз не состоялся бы!Сценарий:Гётц ШпильманнПродюсер:Вульф Флемминг, Эрих ЛакнерОператор:Мартин Гшлахт
Композитор:Уолтер В. Сикан, Марникс Веененбос
Художник:Катарина Вёпперманн, Томас ОлаМонтаж:Карина Ресслер
Гётц Шпильманн-https://en.wikipedia.org/wiki/Gotz_Spielmann Фильм-https://fr.wikipedia.org/wiki/Antares_(film)Награды и номинации">

Это интересноГётц Шпильманн-https://en.wikipedia.org/wiki/Gotz_Spielmann Фильм-https://fr.wikipedia.org/wiki/Antares_(film)Награды и номинации


Рецензия

Софт

PGCDemux (извлечение).
BeSweet, Sony Vegas 9 (звук).
DVD-lab PRO 2. MuxMan (сборка). DvdReMakePro (финал).

Бонусы:(Без перевода)

Трейлеры. Каталог фильмов.
Возраст: 18+Меню:Немецкий, статичное, озвученное.Сэмпл :http://multi-up.com/1025921
Тип релиза:DVD9 (Custom)
Контейнер:DVD-Video
Видео:PAL 16:9 (720x576) VBR, Auto Letterboxed, 5093 Кбит/сек, 25,000 кадров/сек
Аудио 1:Русский:AC3, 2 ch, 48.0 KHz, 192 Кбит/сек / Авторский(одноголосый закадровый) А. АлексеевАудио 2:Немецкий:AC3, 2 ch, 48.0 KHz, 192 Кбит/сек / (Оригинал)Формат субтитров:prerendered (DVD/IDX+SUB)

Dvd Info

Title: Antares DVD-9_Custom
Size: 4.72 Gb ( 4 953 936,00 KBytes ) - DVD-9
Enabled regions: 1, 2, 3, 4, 5, 6, 7, 8
VTS_01 :
Play Length: 01:54:52
Video: PAL 16:9 (720x576) VBR, Auto Letterboxed
Audio:
Russian, AC3, 2/0 (L,R) ch, 192 kbps, Delay 0 mSec
Deutsch, AC3, 2/0 (L,R) ch, 192 kbps, Delay 0 mSec
Subtitles:
English
VTS_02 :
Play Length: 00:00:33+00:01:22
Video: PAL 4:3 (720x576) VBR
Audio:
Not specified, AC3, 2/0 (L,R) ch, 192 kbps, Delay 0 mSec
VTS_03 :
Play Length: 00:00:20+00:00:00+00:00:00+00:00:20+00:00:00+00:00:00+00:00:40+00:00:56+00:00:00
Video: PAL 4:3 (720x576) VBR
Audio:
Not specified (Dolby AC3, 2 ch)

MediaInfo

Общее
Полное имя: F:\Antares DVD-9_Custom\VIDEO_TS\VTS_01_1.VOB
Формат : MPEG-PS
Размер файла : 1024 Мбайт
Продолжительность : 25 м.
Режим общего битрейта : Переменный
Общий поток : 5588 Кбит/сек
Видео
Идентификатор : 224 (0xE0)
Формат : MPEG Video
Версия формата : Version 2
Профиль формата : Main@Main
Параметр BVOP формата : Да
Параметр матрицы формата : По умолчанию
Параметр GOP формата : M=3, N=4
Продолжительность : 25 м.
Вид битрейта : Переменный
Битрейт : 5093 Кбит/сек
Максимальный битрейт : 7000 Кбит/сек
Ширина : 720 пикселей
Высота : 576 пикселей
Соотношение сторон : 2,40:1
Частота кадров : 25,000 кадров/сек
Стандарт вещания : PAL
Цветовое пространство : YUV
Субдискретизация насыщенности : 4:2:0
Битовая глубина : 8 бит
Тип развёртки : Чересстрочная
Порядок развёртки : Верхнее поле первое
Метод сжатия : С потерями
Бит/(Пиксели*Кадры) : 0.491
Временной код первого кадра : 10:00:02:00
Оригинал временного кода : Group of pictures header
Размер потока : 933 Мбайт (91%)
Основные цвета : BT.601 PAL
Характеристики трансфера : BT.470 System B, BT.470 System G
Коэффициенты матрицы : BT.601
Аудио #1
Идентификатор : 189 (0xBD)-128 (0x80)
Формат : AC-3
Формат/Информация : Audio Coding 3
Расширение режима : CM (complete main)
Параметр Endianness формата : Big
Режим смешивания : DVD-Video
Продолжительность : 25 м.
Вид битрейта : Постоянный
Битрейт : 192 Кбит/сек
Каналы : 2 канала
Расположение каналов : Front: L R
Частота : 48,0 КГц
Битовая глубина : 16 бит
Метод сжатия : С потерями
Размер потока : 35,2 Мбайт (3%)
Аудио #2
Идентификатор : 189 (0xBD)-129 (0x81)
Формат : AC-3
Формат/Информация : Audio Coding 3
Расширение режима : CM (complete main)
Параметр Endianness формата : Big
Режим смешивания : DVD-Video
Продолжительность : 25 м.
Вид битрейта : Постоянный
Битрейт : 192 Кбит/сек
Каналы : 2 канала
Расположение каналов : Front: L R
Частота : 48,0 КГц
Битовая глубина : 16 бит
Метод сжатия : С потерями
Размер потока : 35,2 Мбайт (3%)
Текст #1
Идентификатор : 189 (0xBD)-32 (0x20)
Формат : RLE
Формат/Информация : Run-length encoding
Режим смешивания : DVD-Video
Текст #2
Идентификатор : 189 (0xBD)-33 (0x21)
Формат : RLE
Формат/Информация : Run-length encoding
Режим смешивания : DVD-Video

Скриншоты меню

Скриншоты

Скриншоты доп. материалов



Полиграфия


[teatrix.ru].t7236.torrent 
Торрент: Зарегистрирован [ 2015-10-11 11:22 ] · 9FAAC9AFA4EA2ECB6BCDBEC4A725721E5DB88CCD

Скачать .torrent

Скачать

25 KB

Статус: проверено
Скачан: 0 раз
Размер: 4.72 GB
terms.php



Быстрый ответ

Имя:

      
Для отправки сообщений необходимо включить JavaScript
Показать сообщения:    

Текущее время: 11-Дек 03:17

Часовой пояс: UTC + 3


Вы можете начинать темы
Вы можете отвечать на сообщения
Вы не можете редактировать свои сообщения
Вы не можете удалять свои сообщения
Вы не можете голосовать в опросах
Вы не можете прикреплять файлы к сообщениям
Вы можете скачивать файлы