Гоморра / Gomorra / Gomorrah (Маттео Гарроне / Matteo Garrone) [2008, Италия, Драма, Криминал, DVD9 (Custom)+DVD9] MVO + Sub Eng, Rus + Original Ita / Criterion Collection#493


Статистика раздачи [Обновить пиров]
Размер:  14.91 GB   |    Зарегистрирован:  1 год 1 месяц   |    Скачан:  1 раз

Полного источника не было: 4 месяца 10 дней

 
   
 
 
 

[Цитировать]

Гоморра / Gomorra / Gomorrah / Criterion Collection#493
Страна:Италия
Студия:Фанданго, Ministero per i Beni e le Attivita Culturali, Programme MEDIA de la Communaute Europeenne, Rai Cinema, Sky.
Жанр:Драма, КриминалГод выпуска:2008
Продолжительность:02:17:15
Производитель:The Criterion Collection #493
Перевод:Профессиональный (многоголосый закадровый)
Cубтитры:Английские, Русский
Оригинальная аудиодорожка:Итальянский
Премьера (мир):16.05.2008
Режиссер:Маттео Гарроне / Matteo GarroneВ ролях:Тони Сервилло — Франко
Джанфеличе Импарато — дон Чиро
Мария Национале — Мария
Сальваторе Канталупо — Паскуале
Джиджо Морра — Явароне
Сальваторе Абруццезе — Тото
Марко Макор — Марко
Чиро Петроне — Чиро
Кармине Патерностер — Роберто
Описание:В фильме параллельно развиваются, ни разу не пересекаясь, несколько историй с героями разных поколений и разных сфер деятельности. Общее только одно: все они оказываются подчинены интересам преступного сообщества.
Пожилой держатель общака, который выплачивает субсидии родственникам отбывших на отсидку. Два великовозрастных оболтуса, окончательно теряющих голову, когда им удается разворошить тайник с оружием. Тринадцатилетний разносчик продуктов: ему приходится навсегда распрощаться с совестью, наведя бандитов на свою клиентку. Выпускник университета, которого втягивают в бизнес по захоронению токсичных отходов под крышей мафии. Талантливый портной, которого перекупают китайские конкуренты и который чуть не гибнет от мести клана.

Доп. информация:Исходник найден в сети.
Профессиональный (многоголосый, закадровый) и русские субтитрыРеавторинг Нордер.Огромное Спасибо Всем, без чьей помощи этот релиз не состоялся бы!Сценарий:Роберто Савиано, Маурицио Брауччи, Уго КитиПродюсер:Доменико Прокаччи, Лаура ПаолуччиОператор:Марко Онорато
Художник:Паоло Бонфини, Алессанда КардиниМонтаж:Марко Сполетини
Гарроне, Маттео-https://ru.wikipedia.org/wiki/Гарроне,_МаттеоФильм-https://ru.wikipedia.org/wiki/Гоморра_(фильм)Знаете ли вы, что...">

Это интересноГарроне, Маттео-https://ru.wikipedia.org/wiki/Гарроне,_МаттеоФильм-https://ru.wikipedia.org/wiki/Гоморра_(фильм)Знаете ли вы, что...


Награды и номинации



Рецензия

Софт

PGCDemux (извлечение).
BeSweet, Sony Vegas 9 (звук).
DVD-lab PRO 2, Subtitle Workshop (субтитры).
MuxMan (сборка). DvdReMakePro (финал).

Бонусы:(Без перевода)


Disc 1,2:-
Five Stories, a 60-minute documentary on the making of Gomorrah
New video interviews with Garrone and actor Toni Servillo
Interview with writer Roberto Saviano
Short video piece featuring Servillo and actors Gianfelice Imparato and Salvatore Cantalupo
Deleted scenes
Theatrical trailer
New and improved English subtitle translation
Меню:Английский, анимированное, озвученное.Сэмпл Диск 1:http://multi-up.com/1025220Сэмпл Диск 2:http://multi-up.com/1025221Тип релиза:DVD9 (Custom)+DVD9
Контейнер:DVD-Video
Видео:NTSC 16:9 (720x480) VBR, Auto Letterboxed, 6146 Кбит/сек, 23,976 кадра/сек
Аудио 1:Русский:AC3, 6 ch, 48.0 KHz, 448 Кбит/сек / Профессиональный (многоголосый закадровый)Аудио 2:Итальянский:AC3, 6 ch, 48.0 KHz, 448 Кбит/сек / (Оригинал)Формат субтитров:prerendered (DVD/IDX+SUB)

Dvd Info- Диск 1

Title: Диск 1
Size: 7.82 Gb ( 8 195 368,00 KBytes ) - DVD-9
Enabled regions: 1, 2, 3, 4, 5, 6, 7, 8
VTS_01 :
Play Length: 02:17:15
Video: NTSC 16:9 (720x480) VBR, Auto Letterboxed
Audio:
Russian, AC3, 3/2 (L,C,R,SL,SR)+LFE ch, 448 kbps, Delay 0 mSec
Italiano, AC3, 3/2 (L,C,R,SL,SR)+LFE ch, 448 kbps, Delay 0 mSec
Subtitles:
English
Russian
VTS_02 :
Play Length: 00:00:06
Video: NTSC 4:3 (720x480) VBR
VTS_03 :
Play Length: 00:00:06
Video: NTSC 4:3 (720x480) VBR
VTS_04 :
Play Length: 00:02:28
Video: NTSC 16:9 (720x480) VBR, Auto Letterboxed
Audio:
Italiano, AC3, 2/0 (L,R) ch, 192 kbps, Delay 0 mSec
Subtitles:
English
VTS_05 :
Play Length: 00:00:20
Video: NTSC 4:3 (720x480) VBR
Audio:
Francais, AC3, 1/0 (C) ch, 192 kbps, Delay 0 mSec

Dvd Info- Диск 2

Title: Диск 2
Size: 7.10 Gb ( 7 441 294,00 KBytes ) - DVD-9
Enabled regions: 1, 2, 3, 4, 5, 6, 7, 8
VTS_01 :
Play Length: 00:00:06
Video: NTSC 4:3 (720x480) VBR
Audio:
Italiano, AC3, 1/0 (C) ch, 192 kbps, Delay 0 mSec
Subtitles:
English
VTS_02 :
Play Length: 00:00:06
Video: NTSC 4:3 (720x480) VBR
Audio:
Italiano, AC3, 1/0 (C) ch, 192 kbps, Delay 0 mSec
Subtitles:
English
VTS_03 :
Play Length: 00:00:06
Video: NTSC 4:3 (720x480) VBR
Audio:
Italiano, AC3, 1/0 (C) ch, 192 kbps, Delay 0 mSec
Subtitles:
English
VTS_04 :
Play Length: 01:02:29
Video: NTSC 4:3 (720x480) VBR
Audio:
Italiano, AC3, 1/0 (C) ch, 192 kbps, Delay 0 mSec
Subtitles:
English
VTS_05 :
Play Length: 00:22:36
Video: NTSC 16:9 (720x480) VBR, Auto Letterboxed
Audio:
Italiano, AC3, 2/0 (L,R) ch, 192 kbps, Delay 0 mSec
Subtitles:
English
VTS_06 :
Play Length: 00:13:54
Video: NTSC 16:9 (720x480) VBR, Auto Letterboxed
Audio:
Italiano, AC3, 2/0 (L,R) ch, 192 kbps, Delay 0 mSec
Subtitles:
English
VTS_07 :
Play Length: 00:10:32
Video: NTSC 4:3 (720x480) VBR
Audio:
Italiano, AC3, 2/0 (L,R) ch, 192 kbps, Delay 0 mSec
Subtitles:
English
VTS_08 :
Play Length: 00:42:58
Video: NTSC 4:3 (720x480) VBR
Audio:
Italiano, AC3, 1/0 (C) ch, 192 kbps, Delay 0 mSec
Subtitles:
English
VTS_09 :
Play Length: 00:12:56+{00:03:23}+{00:00:41}+{00:02:30}+{00:02:03}+{00:03:00}+{00:01:21}
Video: NTSC 16:9 (720x480) VBR, Auto Letterboxed
Audio:
Italiano, AC3, 1/0 (C) ch, 192 kbps, Delay 0 mSec
Subtitles:
English
VTS_10 :
Play Length: 00:00:06
Video: NTSC 16:9 (720x480) VBR, Auto Letterboxed
Audio:
Italiano, AC3, 1/0 (C) ch, 192 kbps, Delay 0 mSec
Subtitles:
English

Mediainfo- Диск 1

Общее
Полное имя: F:\Gomorra DVD-9_Custom+DVD-9_Criterion#493\Диск 1\VIDEO_TS\VTS_01_1.VOB
Формат : MPEG-PS
Размер файла : 1024 Мбайт
Продолжительность : 19 м.
Режим общего битрейта : Переменный
Общий поток : 7185 Кбит/сек
Видео
Идентификатор : 224 (0xE0)
Формат : MPEG Video
Версия формата : Version 2
Профиль формата : Main@Main
Параметр BVOP формата : Да
Параметр матрицы формата : Выборочная
Параметр GOP формата : Variable
Продолжительность : 19 м.
Вид битрейта : Переменный
Битрейт : 6146 Кбит/сек
Максимальный битрейт : 9800 Кбит/сек
Ширина : 720 пикселей
Высота : 480 пикселей
Соотношение сторон : 16:9
Частота кадров : 23,976 кадра/сек
Стандарт вещания : NTSC
Цветовое пространство : YUV
Субдискретизация насыщенности : 4:2:0
Битовая глубина : 8 бит
Тип развёртки : Прогрессивная
Порядок развёртки : 2:3 Pulldown
Метод сжатия : С потерями
Бит/(Пиксели*Кадры) : 0.742
Временной код первого кадра : 00:00:00:00
Оригинал временного кода : Group of pictures header
Размер потока : 876 Мбайт (86%)
Аудио #1
Идентификатор : 189 (0xBD)-128 (0x80)
Формат : AC-3
Формат/Информация : Audio Coding 3
Расширение режима : CM (complete main)
Параметр Endianness формата : Big
Режим смешивания : DVD-Video
Продолжительность : 19 м.
Вид битрейта : Постоянный
Битрейт : 448 Кбит/сек
Каналы : 6 каналов
Расположение каналов : Front: L C R, Side: L R, LFE
Частота : 48,0 КГц
Битовая глубина : 16 бит
Метод сжатия : С потерями
Размер потока : 63,8 Мбайт (6%)
Аудио #2
Идентификатор : 189 (0xBD)-129 (0x81)
Формат : AC-3
Формат/Информация : Audio Coding 3
Расширение режима : CM (complete main)
Параметр Endianness формата : Big
Режим смешивания : DVD-Video
Продолжительность : 19 м.
Вид битрейта : Постоянный
Битрейт : 448 Кбит/сек
Каналы : 6 каналов
Расположение каналов : Front: L C R, Side: L R, LFE
Частота : 48,0 КГц
Битовая глубина : 16 бит
Метод сжатия : С потерями
Размер потока : 63,8 Мбайт (6%)
Текст #1
Идентификатор : 189 (0xBD)-32 (0x20)
Формат : RLE
Формат/Информация : Run-length encoding
Режим смешивания : DVD-Video
Текст #2
Идентификатор : 189 (0xBD)-33 (0x21)
Формат : RLE
Формат/Информация : Run-length encoding
Режим смешивания : DVD-Video
Текст #3
Идентификатор : 189 (0xBD)-34 (0x22)
Формат : RLE
Формат/Информация : Run-length encoding
Режим смешивания : DVD-Video

Mediainfo- Диск 2

Общее
Полное имя: F:\Gomorra DVD-9_Custom+DVD-9_Criterion#493\Диск 2\VIDEO_TS\VTS_04_1.VOB
Формат : MPEG-PS
Размер файла : 1024 Мбайт
Продолжительность : 24 м.
Режим общего битрейта : Переменный
Общий поток : 5932 Кбит/сек
Видео
Идентификатор : 224 (0xE0)
Формат : MPEG Video
Версия формата : Version 2
Профиль формата : Main@Main
Параметр BVOP формата : Да
Параметр матрицы формата : Выборочная
Параметр GOP формата : Variable
Продолжительность : 24 м.
Вид битрейта : Переменный
Битрейт : 5622 Кбит/сек
Максимальный битрейт : 9800 Кбит/сек
Ширина : 720 пикселей
Высота : 480 пикселей
Соотношение сторон : 4:3
Частота кадров : 23,976 кадра/сек
Стандарт вещания : NTSC
Цветовое пространство : YUV
Субдискретизация насыщенности : 4:2:0
Битовая глубина : 8 бит
Тип развёртки : Прогрессивная
Порядок развёртки : 2:3 Pulldown
Метод сжатия : С потерями
Бит/(Пиксели*Кадры) : 0.679
Временной код первого кадра : 00:59:59:00
Оригинал временного кода : Group of pictures header
Размер потока : 970 Мбайт (95%)
Аудио
Идентификатор : 189 (0xBD)-128 (0x80)
Формат : AC-3
Формат/Информация : Audio Coding 3
Расширение режима : CM (complete main)
Параметр Endianness формата : Big
Режим смешивания : DVD-Video
Продолжительность : 24 м.
Вид битрейта : Постоянный
Битрейт : 192 Кбит/сек
Каналы : 1 канал
Расположение каналов : Front: C
Частота : 48,0 КГц
Битовая глубина : 16 бит
Метод сжатия : С потерями
Размер потока : 33,1 Мбайт (3%)
Текст
Идентификатор : 189 (0xBD)-32 (0x20)
Формат : RLE
Формат/Информация : Run-length encoding
Режим смешивания : DVD-Video

Скриншоты меню-Диск 1


Скриншоты фильма-Диск 1

Скриншоты доп. материалов-Диск 1

Скриншоты меню-Диск 2


Скриншоты доп. материалов-Диск 2




[teatrix.ru].t7240.torrent 
Торрент: Зарегистрирован [ 2015-10-11 11:22 ] · 40AC75A214C171B701EFDEBF0151BB3658214628

Скачать .torrent

Скачать

80 KB

Статус: проверено
Скачан: 1 раз
Размер: 14.91 GB
terms.php



Быстрый ответ

Имя:

      
Для отправки сообщений необходимо включить JavaScript
Показать сообщения:    

Текущее время: 06-Дек 15:16

Часовой пояс: UTC + 3


Вы можете начинать темы
Вы можете отвечать на сообщения
Вы не можете редактировать свои сообщения
Вы не можете удалять свои сообщения
Вы не можете голосовать в опросах
Вы не можете прикреплять файлы к сообщениям
Вы можете скачивать файлы