Копия верна / Copie conforme / Certified copy (Аббас Киаростами / Abbas Kiarostami) [2009, Франция, Италия, Бельгия, Иран, Драма, DVD9 (Custom)+DVD9] MVO + Sub Eng, Rus + Original Fre / Criterion Collection#612


Статистика раздачи [Обновить пиров]
Размер:  13.71 GB   |    Зарегистрирован:  1 год 3 месяца   |    Скачан:  0 раз

Полного источника не было: Никогда

 
   
 
 
 

[Цитировать]

Копия верна / Copie conforme / Certified copy / Criterion Collection#612
Страна:Франция, Италия, Бельгия, Иран
Студия:Abbas Kiarostami Productions, Anglo-Belge Special Risks NV, Artemis Productions, BiBiFilm, Canal+ France, Centre National de la Cinematographie (CNC), Cinemage 4, Cofinova 6, France 3 Cinema, France Televisions, Le Tax Shelter du Gouvernement Federal de Belgique, MK2 Productions, Programme MEDIA de la Communaute Europeenne, Radiotelevisione Italiana (RAI), Rai Cinema, Regione Toscana, Soficinema 5, Toscana Film Commission.
Жанр:ДрамаГод выпуска:2009
Продолжительность:01:46:42
Производитель:The Criterion Collection #612
Перевод :Профессиональный (многоголосый закадровый)
Cубтитры:Английские, Русский zovex
Оригинальная аудиодорожка:Французский
Премьера (мир):18.05.2010
Режиссер:Аббас Киаростами / Abbas KiarostamiВ ролях:Жюльетт Бинош — «Она» (владелица галереи)
Уильям Шимелл — Джеймс Миллер (писатель)
Жан-Клод Каррьер — мужчина на площади
Агата Натансон — женщина на площади
Джанна Джакетти — хозяйка кафе
Эдриан Мур — сын
Описание:Джеймс — британский писатель, приезжает в Италию на конференцию, посвященную проблеме подлинников и копий в искусстве. Там он знакомится с француженкой, владелицей картинной галереи, которая делает вид, что писатель — это ее частенько отсутствующий муж. Писатель подыгрывает очаровательной женщине, но эта невинная игра вскоре становится опасной.
Доп. информация:Исходник найден в сети.
Профессиональный (многоголосый, закадровый) и русские субтитры-1Русские субтитры-2 zovex
Реавторинг Нордер.Огромное Спасибо Всем, без чьей помощи этот релиз не состоялся бы!Сценарий:Каролин Эльяшефф, Аббас КиаростамиПродюсер:Анджело Барбагалло, Шарль Жилибер, Натанаэль КармицОператор:Лука Бигацци
Художник:Джанкарло Базили, Людовика Феррарио, Stefano PicciarelliМонтаж:Бахман Киаростами
Киаростами, Аббас-https://ru.wikipedia.org/wiki/Киаростами,_Аббас Фильм-https://ru.wikipedia.org/wiki/Копия_вернаНаграды и номинации">

Это интересноКиаростами, Аббас-https://ru.wikipedia.org/wiki/Киаростами,_Аббас Фильм-https://ru.wikipedia.org/wiki/Копия_вернаНаграды и номинации



Рецензия

Софт

PGCDemux (извлечение).
BeSweet, Sony Vegas 9 (звук).
DVD-lab PRO 2, Subtitle Workshop (субтитры).
MuxMan (сборка). DvdReMakePro (финал).

Бонусы:(Без перевода)


Disc 1,2:-
Disc 1:
- New high-definition digital restoration
- New English subtitle translation
- Trailer
Disc 2:
- The rarely seen 1977 Kiarostami film The Report, which deals with similar themes
- New interview with director Abbas Kiarostami
- Let’s See “Copia conforme,” an Italian documentary on the making of Certified Copy, featuring interviews with Kiarostami and actors Juliette Binoche and William Shimell
Меню:Английский, статичное, неозвученное.Сэмпл Диск 1:http://multi-up.com/1024227Сэмпл Диск 2:http://multi-up.com/1023448Тип релиза:DVD9 (Custom)+DVD9
Контейнер:DVD-Video
Видео:NTSC 16:9 (720x480) VBR, Auto Letterboxed, 8030 Кбит/сек, 23,976 кадра/сек
Аудио 1:Русский:AC3, 6 ch, 48.0 KHz, 448 Кбит/сек / Профессиональный (многоголосый закадровый)Аудио 2:Французский:AC3, 6 ch, 48.0 KHz, 448 Кбит/сек / (Оригинал)Формат субтитров:prerendered (DVD/IDX+SUB)

Dvd Info- Диск 1

Title: диск 1
Size: 6.89 Gb ( 7 224 540,00 KBytes ) - DVD-9
Enabled regions: 1, 2, 3, 4, 5, 6, 7, 8
VTS_01 :
Play Length: 00:00:00
Video: NTSC 16:9 (720x480) VBR, Auto Letterboxed
VTS_02 :
Play Length: 01:46:42
Video: NTSC 16:9 (720x480) VBR, Auto Letterboxed
Audio:
Russian (Dolby AC3, 6 ch)
Francais (Dolby AC3, 6 ch)
Subtitles:
English
English
Russian
Russian
VTS_03 :
Play Length: 00:00:20
Video: NTSC 16:9 (720x480) VBR, Auto Pan&Scan
VTS_04 :
Play Length: 00:02:14
Video: NTSC 16:9 (720x480) VBR, Auto Letterboxed
Audio:
English, AC3, 3/2 (L,C,R,SL,SR)+LFE ch, 448 kbps, Delay 0 mSec
VTS_05 :
Play Length: 00:00:00
Video: NTSC 4:3 (720x480) VBR

Dvd Info- Диск 2

Title: диск 2
Size: 6.82 Gb ( 7 148 720,00 KBytes ) - DVD-9
Enabled regions: 1, 2, 3, 4, 5, 6, 7, 8
VTS_01 :
Play Length: 00:00:00
Video: NTSC 16:9 (720x480) VBR, Auto Letterboxed
VTS_02 :
Play Length: 01:49:20
Video: NTSC 4:3 (720x480) VBR
Audio:
Persian, AC3, 1/0 (C) ch, 192 kbps, Delay 0 mSec
VTS_03 :
Play Length: 00:16:01
Video: NTSC 16:9 (720x480) VBR, Auto Letterboxed
Audio:
Persian, AC3, 2/0 (L,R) ch, 192 kbps, Delay 0 mSec
Subtitles:
English
VTS_04 :
Play Length: 00:52:01
Video: NTSC 16:9 (720x480) VBR, Auto Letterboxed
Audio:
Italiano, AC3, 1/0 (C) ch, 192 kbps, Delay 0 mSec
Subtitles:
English
VTS_05 :
Play Length: 00:00:00
Video: NTSC 4:3 (720x480) VBR

Mediainfo- Диск 1

Общее
Полное имя: F:\Certified copy DVD-9_Custom+DVD-9_Criterion#612\диск 1\VIDEO_TS\VTS_02_2.VOB
Формат : MPEG-PS
Размер файла : 1024 Мбайт
Продолжительность : 15 м.
Режим общего битрейта : Переменный
Общий поток : 9107 Кбит/сек
Видео
Идентификатор : 224 (0xE0)
Формат : MPEG Video
Версия формата : Version 2
Профиль формата : Main@Main
Параметр BVOP формата : Да
Параметр матрицы формата : Выборочная
Параметр GOP формата : Variable
Продолжительность : 15 м.
Вид битрейта : Переменный
Битрейт : 8030 Кбит/сек
Максимальный битрейт : 9800 Кбит/сек
Ширина : 720 пикселей
Высота : 480 пикселей
Соотношение сторон : 16:9
Частота кадров : 23,976 кадра/сек
Стандарт вещания : NTSC
Цветовое пространство : YUV
Субдискретизация насыщенности : 4:2:0
Битовая глубина : 8 бит
Тип развёртки : Прогрессивная
Порядок развёртки : 2:3 Pulldown
Метод сжатия : С потерями
Бит/(Пиксели*Кадры) : 0.969
Временной код первого кадра : 10:15:47:28
Оригинал временного кода : Group of pictures header
Размер потока : 903 Мбайт (88%)
Аудио #1
Идентификатор : 189 (0xBD)-128 (0x80)
Формат : AC-3
Формат/Информация : Audio Coding 3
Расширение режима : CM (complete main)
Параметр Endianness формата : Big
Режим смешивания : DVD-Video
Продолжительность : 15 м.
Вид битрейта : Постоянный
Битрейт : 448 Кбит/сек
Каналы : 6 каналов
Расположение каналов : Front: L C R, Side: L R, LFE
Частота : 48,0 КГц
Битовая глубина : 16 бит
Метод сжатия : С потерями
Задержка видео : -655 мс.
Размер потока : 50,4 Мбайт (5%)
Аудио #2
Идентификатор : 189 (0xBD)-129 (0x81)
Формат : AC-3
Формат/Информация : Audio Coding 3
Расширение режима : CM (complete main)
Параметр Endianness формата : Big
Режим смешивания : DVD-Video
Продолжительность : 15 м.
Вид битрейта : Постоянный
Битрейт : 448 Кбит/сек
Каналы : 6 каналов
Расположение каналов : Front: L C R, Side: L R, LFE
Частота : 48,0 КГц
Битовая глубина : 16 бит
Метод сжатия : С потерями
Задержка видео : -655 мс.
Размер потока : 50,4 Мбайт (5%)
Текст #1
Идентификатор : 189 (0xBD)-34 (0x22)
Формат : RLE
Формат/Информация : Run-length encoding
Режим смешивания : DVD-Video
Текст #2
Идентификатор : 189 (0xBD)-35 (0x23)
Формат : RLE
Формат/Информация : Run-length encoding
Режим смешивания : DVD-Video
Текст #3
Идентификатор : 189 (0xBD)-36 (0x24)
Формат : RLE
Формат/Информация : Run-length encoding
Режим смешивания : DVD-Video
Текст #4
Идентификатор : 189 (0xBD)-37 (0x25)
Формат : RLE
Формат/Информация : Run-length encoding
Режим смешивания : DVD-Video

Mediainfo- Диск 2

Общее
Полное имя: F:\Certified copy DVD-9_Custom+DVD-9_Criterion#612\диск 2\VIDEO_TS\VTS_02_1.VOB
Формат : MPEG-PS
Размер файла : 1024 Мбайт
Продолжительность : 26 м.
Режим общего битрейта : Переменный
Общий поток : 5426 Кбит/сек
Видео
Идентификатор : 224 (0xE0)
Формат : MPEG Video
Версия формата : Version 2
Профиль формата : Main@Main
Параметр BVOP формата : Да
Параметр матрицы формата : Выборочная
Параметр GOP формата : Variable
Продолжительность : 26 м.
Вид битрейта : Переменный
Битрейт : 5126 Кбит/сек
Максимальный битрейт : 9800 Кбит/сек
Ширина : 720 пикселей
Высота : 480 пикселей
Соотношение сторон : 4:3
Частота кадров : 29,970 кадров/сек
Стандарт вещания : NTSC
Цветовое пространство : YUV
Субдискретизация насыщенности : 4:2:0
Битовая глубина : 8 бит
Тип развёртки : Чересстрочная
Порядок развёртки : Верхнее поле первое
Метод сжатия : С потерями
Бит/(Пиксели*Кадры) : 0.495
Временной код первого кадра : 00:59:59:21
Оригинал временного кода : Group of pictures header
Размер потока : 967 Мбайт (94%)
Аудио
Идентификатор : 189 (0xBD)-128 (0x80)
Формат : AC-3
Формат/Информация : Audio Coding 3
Расширение режима : CM (complete main)
Параметр Endianness формата : Big
Режим смешивания : DVD-Video
Продолжительность : 26 м.
Вид битрейта : Постоянный
Битрейт : 192 Кбит/сек
Каналы : 1 канал
Расположение каналов : Front: C
Частота : 48,0 КГц
Битовая глубина : 16 бит
Метод сжатия : С потерями
Размер потока : 36,2 Мбайт (4%)

Скриншоты меню-Диск 1

Скриншоты фильма-Диск 1

Скриншоты доп. материалов-Диск 1

Скриншоты меню-Диск 2

Скриншоты доп. материалов-Диск 2


[teatrix.ru].t7243.torrent 
Торрент: Зарегистрирован [ 2015-10-11 11:22 ] · E63AFA0784F75204AA04D937732BE881949A4691

Скачать .torrent

Скачать

73 KB

Статус: проверено
Скачан: 0 раз
Размер: 13.71 GB
terms.php



Быстрый ответ

Имя:

      
Для отправки сообщений необходимо включить JavaScript
Показать сообщения:    

Текущее время: 24-Янв 00:03

Часовой пояс: UTC + 3


Вы можете начинать темы
Вы можете отвечать на сообщения
Вы не можете редактировать свои сообщения
Вы не можете удалять свои сообщения
Вы не можете голосовать в опросах
Вы не можете прикреплять файлы к сообщениям
Вы можете скачивать файлы