Боккаччо 70 / Boccaccio '70 (Витторио Де Сика / Vittorio De Sica, Федерико Феллини / Federico Fellini, Марио Моничелли / Mario Monicelli, Лукино Висконти / Luchino Visconti) [1962, Италия, Франция, Трагикомедия, DVD9 (Custom)] MVO (Кармен Видео)


Статистика раздачи [Обновить пиров]
Размер:  7.65 GB   |    Зарегистрирован:  1 год 1 месяц   |    Скачан:  0 раз

Полного источника не было: 14 дней

 
   
 
 
 

[Цитировать]

Боккаччо 70 / Boccaccio '70
Страна: Италия, Франция
Студия: Cineriz, Concordia Compagnia Cinematografica, Francinex, Gray-Film
Жанр: Трагикомедия
Год выпуска: 1962
Продолжительность: 03:23:51
Перевод: Профессиональный (многоголосый закадровый) Кармен Видео
Cубтитры: английские
Оригинальная аудиодорожка: итальянский
Режиссер: Витторио Де Сика / Vittorio De Sica, Федерико Феллини / Federico Fellini, Марио Моничелли / Mario Monicelli, Лукино Висконти / Luchino Visconti
В ролях: Мариса Солинас / Marisa Solinas, Джемино Джилиоли / Germano Gilioli, Анита Экберг, Пеппино Де Филиппо, Роми Шнайдер, Томас Милиан, Ромоло Валли, Софи Лорен, Луиджи Джулиани, Альфио Вита
Описание: Комедийный фильм, состоящий из четырех новелл, связанных одной темой - отношение мужчин к женщине. Пытаясь воссоздать дух «Декамерона» каждый автор снял новеллу, которая является законченным фильмом в фильме.
Ренцо и Лучана / Renzo e Luciana:
Задорная история о неунывающих молодоженах, пробивающих себе дорогу сквозь нищету и произвол работодателей. Эта новелла не включалась в фильм при показе его за пределами Италии.
Режиссёр — Марио Моничелли
Искушение доктора Антонио / Le Tentazioni Del Dottor Antonio:
Сюрреалистичная история о необходимости ценить красоту, направленная против клерикализма и ханжеской морали.
Режиссёр — Федерико Феллини
Работа / Il Lavoro:
История томящихся от безделья и одиночества аристократов, решающих свои проблемы поиском удовольствий (муж) или стремлением найти работу (жена). Впрочем, в определенный момент их поиски приводят их друг к другу.
Режиссёр — Лукино Висконти
Лотерея / La Riffa:
Рассказ о деревенской красотке, стремящейся вырваться из нищеты и захолустья и организующей с этой целью «лотерею».
Режиссёр — Витторио де Сика
За синхронизацию дорожки огромное спасибо Нордер
При пересборе двд были использованы программы:
PgcDemux - разделение компонентов диска на файлы
Muxman - мультиплексирование и авторинг DVD
VobBlanker - реавторинг DVD

Скрин завершения проекта

Бонусы: Галерея, трейлеры
Сэмпл: http://sendfile.su/1067631
Тип релиза: DVD9 (Custom)
Контейнер: DVD-Video
Видео: NTSC 16:9 (720x480) VBR Auto Pan&Scan
Аудио: Russian (Dolby AC3, 192 Кбит/сек, 2 ch)
Аудио 2: Italiano (Dolby AC3, 192 Кбит/сек, 1 ch)
Формат субтитров: softsub (SRT)

DVDInfo

Size: 7.65 Gb ( 8 022 940 KBytes ) - DVD-9
Enabled regions: 1, 2, 3, 4, 5, 6, 7, 8
VTS_01 :
Play Length: 03:23:51
Video: NTSC 16:9 (720x480) VBR, Auto Pan&Scan
Audio:
Russian (Dolby AC3, 2 ch)
Italiano (Dolby AC3, 1 ch)
Subtitles:
English
VTS_02 :
Play Length: 00:00:14
Video: NTSC 16:9 (720x480) VBR, Auto Pan&Scan
Audio:
English (Dolby AC3, 2 ch)
Subtitles:
Not specified
VTS_03 :
Play Length: 00:02:20
Video: NTSC 16:9 (720x480) VBR, Auto Pan&Scan
Audio:
Italiano (Dolby AC3, 2 ch)
VTS_04 :
Play Length: 00:04:12
Video: NTSC 16:9 (720x480) VBR, Auto Pan&Scan
Audio:
Italiano (Dolby AC3, 2 ch)
VTS_05 :
Play Length: 00:03:59
Video: NTSC 16:9 (720x480) VBR, Auto Pan&Scan
Audio:
Not specified (Dolby AC3, 2 ch)
VTS_06 :
Play Length: 00:01:50
Video: NTSC 16:9 (720x480) VBR, Auto Pan&Scan
Audio:
Not specified (Dolby AC3, 2 ch)
Subtitles:
English
VTS_07 :
Play Length: 00:02:10
Video: NTSC 16:9 (720x480) VBR, Auto Letterboxed
VTS_08 :
Play Length: 00:03:55
Video: NTSC 16:9 (720x480) VBR, Auto Letterboxed
VTS_09 :
Play Length: 00:04:50
Video: NTSC 16:9 (720x480) VBR, Auto Letterboxed
VTS_10 :
Play Length: 00:02:05
Video: NTSC 16:9 (720x480) VBR, Auto Letterboxed
VTS_11 :
Play Length: 00:02:10
Video: NTSC 16:9 (720x480) VBR, Auto Letterboxed
VTS_12 :
Play Length: 00:05:50
Video: NTSC 16:9 (720x480) VBR, Auto Letterboxed
Menu Video:
NTSC 16:9 (720x480) VBR
Auto Letterboxed
Menu Audio:
Not specified (LinearPCM, 5 ch)
Menu Subtitles:
Not specified
Menu English Language Unit :
Root Menu
Chapter (PTT) Menu

MediaInfo

Общее
Полное имя : I:\Boccaccio '70_1962\VIDEO_TS\VTS_01_1.VOB
Формат : MPEG-PS
Размер файла : 1024 Мбайт
Продолжительность : 28 м.
Режим общего битрейта : Переменный
Общий поток : 5081 Кбит/сек
Видео
Идентификатор : 224 (0xE0)
Формат : MPEG Video
Версия формата : Version 2
Профиль формата : Main@Main
Параметр BVOP формата : Да
Параметр матрицы формата : Выборочная
Продолжительность : 28 м.
Вид битрейта : Переменный
Битрейт : 4596 Кбит/сек
Максимальный битрейт : 9800 Кбит/сек
Ширина : 720 пикселей
Высота : 480 пикселей
Соотношение сторон : 16:9
Частота кадров : 29,970 кадров/сек
Стандарт вещания : NTSC
Цветовое пространство : YUV
Субдискретизация насыщенности : 4:2:0
Битовая глубина : 8 бит
Тип развёртки : Чересстрочная
Порядок развёртки : Нижнее поле первое
Метод сжатия : С потерями
Бит/(Пиксели*Кадры) : 0.444
Размер потока : 926 Мбайт (90%)
Аудио #1
Идентификатор : 189 (0xBD)-128 (0x80)
Формат : AC-3
Формат/Информация : Audio Coding 3
Расширение режима : CM (complete main)
Параметр Endianness формата : Big
Режим смешивания : DVD-Video
Продолжительность : 28 м.
Вид битрейта : Постоянный
Битрейт : 192 Кбит/сек
Каналы : 2 канала
Расположение каналов : Front: L R
Частота : 48,0 КГц
Битовая глубина : 16 бит
Метод сжатия : С потерями
Размер потока : 38,7 Мбайт (4%)
Аудио #2
Идентификатор : 189 (0xBD)-129 (0x81)
Формат : AC-3
Формат/Информация : Audio Coding 3
Расширение режима : CM (complete main)
Параметр Endianness формата : Big
Режим смешивания : DVD-Video
Продолжительность : 28 м.
Вид битрейта : Постоянный
Битрейт : 192 Кбит/сек
Каналы : 1 канал
Расположение каналов : Front: C
Частота : 48,0 КГц
Битовая глубина : 16 бит
Метод сжатия : С потерями
Размер потока : 38,7 Мбайт (4%)
Текст
Идентификатор : 189 (0xBD)-32 (0x20)
Формат : RLE
Формат/Информация : Run-length encoding
Режим смешивания : DVD-Video
Меню

Постеры, обложка и блин

Скриншоты меню

[teatrix.ru].t7246.torrent 
Торрент: Зарегистрирован [ 2015-10-11 11:22 ] · 591A9094D0A081DC1FA30D9EB1CC867E1AA8D19C

Скачать .torrent

Скачать

42 KB

Статус: проверено
Скачан: 0 раз
Размер: 7.65 GB
terms.php



Быстрый ответ

Имя:

      
Для отправки сообщений необходимо включить JavaScript
Показать сообщения:    

Текущее время: 06-Дек 13:16

Часовой пояс: UTC + 3


Вы можете начинать темы
Вы можете отвечать на сообщения
Вы не можете редактировать свои сообщения
Вы не можете удалять свои сообщения
Вы не можете голосовать в опросах
Вы не можете прикреплять файлы к сообщениям
Вы можете скачивать файлы