Реванш / Revanche (Гётц Шпильманн / Götz Spielmann) [2008, Австрия, Триллер, Драма, DVD9 (Custom)+DVD9] MVO (CP Digital) + VO + Sub Eng, Rus + Original Ger / Criterion Collection#502


Статистика раздачи [Обновить пиров]
Размер:  14.93 GB   |    Зарегистрирован:  1 год 1 месяц   |    Скачан:  0 раз

Полного источника не было: Никогда

 
   
 
 
 

[Цитировать]

Реванш / Revanche / Criterion Collection#502 «Кто виноват, если в жизни все складывается не так?»
Страна:Австрия
Студия:Prisma Film, Spielmannfilm.
Жанр:Триллер, Драма, Мелодрама, КриминалГод выпуска:2008
Продолжительность:02:01:55
Производитель:The Criterion Collection #502
Перевод 1:Профессиональный (многоголосый закадровый)CP DigitalПеревод 2:Одноголосый закадровый (Владимир ака cmaker)Cубтитры:Английские, Русский
Оригинальная аудиодорожка:Немецкий
Премьера (мир):10.02.2008
Режиссер:Гётц Шпильманн / Gotz SpielmannВ ролях:Йоханнес Криш, Ирина Потапенко, Андреас Луст, Урсула Штраусс, Йоханес Танхайзер, Ханно Пёшль, Магдалена Кропьюниг, Тони Слам, Элизабета Пейциноска, Анико Баркани.
Описание:В красном районе Вены Алекс работает шофером у владельца борделя, он ведет тайный роман с одной из проституток Тамарой. Безвыходность ситуации приводит к тому, что Алекс решает ограбить банк… В австрийской сельской местности, Роберт и Сюзанна построили уютный дом и пытаются построить семью. Он работает полицейским в селе, она работает в местном продуктовом магазине и по воскресеньям берет своего престарелого, овдовевшего соседа в церковь… Что может пойти не так?
Доп. информация:Исходник найден в сети.
Профессиональный (многоголосый, закадровый) CP DigitalИзначально звуковая дорожка дутая, переведенна в AC3, 2/0.Любительский одноголосый (Владимир ака cmaker) и русские субтитрыРеавторинг Нордер.Огромное Спасибо Всем, без чьей помощи этот релиз не состоялся бы!Сценарий:Гётц ШпильманнПродюсер:Сандра Боле, Матиас Форберг, Гётц ШпильманнОператор:Мартин Гшлахт
Художник:Мария Грубер, Моника БаттингерМонтаж:Карина Ресслер
Gotz Spielmann-https://en.wikipedia.org/wiki/Götz_Spielmann Фильм-https://ru.wikipedia.org/wiki/Реванш_(фильм,_2008)Награды и номинации">

Это интересноGotz Spielmann-https://en.wikipedia.org/wiki/Götz_Spielmann Фильм-https://ru.wikipedia.org/wiki/Реванш_(фильм,_2008)Награды и номинации



Рецензия

Софт

PGCDemux (извлечение).
BeSweet, Sony Vegas 9 (звук).
DVD-lab PRO 2, Subtitle Workshop (субтитры).
MuxMan (сборка). DvdReMakePro (финал).

Бонусы:(Без перевода)


Disc 1,2:-
• U.S. theatrical trailer
• New video interview with Spielmann (35:31)
• The Making of “Revanche,” a half-hour documentary shot on the set (36:10)
• Foreign Land (aka Fremdland, 44:47), Spielmann’s award-winning student short film, with an introduction by the director (3:30)
Меню:Английский, анимированное, озвученное.Сэмпл Диск 1:http://multi-up.com/1023103Сэмпл Диск 2:http://multi-up.com/1023105Тип релиза:DVD9 (Custom)+DVD9
Контейнер:DVD-Video
Видео:NTSC 16:9 (720x480) VBR, Auto Letterboxed, 8065 Кбит/сек, 29,970 кадров/сек
Аудио 1:Русский:AC3, 2 ch, 48.0 KHz, 192 Кбит/сек / Профессиональный (многоголосый закадровый)CP DigitalАудио 2:Русский:AC3, 6 ch, 48.0 KHz, 384 Кбит/сек / Одноголосый закадровый (Владимир ака cmaker)Аудио 3:Немецкий:AC3, 6 ch, 48.0 KHz, 448 Кбит/сек / (Оригинал)Формат субтитров:prerendered (DVD/IDX+SUB)

Dvd Info- Диск 1

Title: Диск 1
Size: 7.77 Gb ( 8 149 970,00 KBytes ) - DVD-9
Enabled regions: 1, 2, 3, 4, 5, 6, 7, 8
VTS_01 :
Play Length: 00:00:00
Video: NTSC 16:9 (720x480) VBR, Auto Letterboxed
VTS_02 :
Play Length: 00:01:38
Video: NTSC 16:9 (720x480) VBR, Auto Letterboxed
Audio:
Deutsch, AC3, 3/2 (L,C,R,SL,SR)+LFE ch, 448 kbps, Delay 0 mSec
VTS_03 :
Play Length: 02:01:55
Video: NTSC 16:9 (720x480) VBR, Auto Letterboxed
Audio:
Russian, AC3, 2/0 (L,R) ch, 192 kbps, Delay 0 mSec
Russian, AC3, 3/2 (L,C,R,SL,SR)+LFE ch, 384 kbps, Delay 0 mSec
Deutsch, AC3, 3/2 (L,C,R,SL,SR)+LFE ch, 448 kbps, Delay 0 mSec
Subtitles:
English
Russian
VTS_04 :
Play Length: 00:00:20
Video: NTSC 16:9 (720x480) VBR, Auto Pan&Scan
VTS_05 :
Play Length: 00:00:00
Video: NTSC 4:3 (720x480) VBR

Dvd Info- Диск 2

Title: Диск 2
Size: 7.16 Gb ( 7 506 976,00 KBytes ) - DVD-9
Enabled regions: 1, 2, 3, 4, 5, 6, 7, 8
VTS_01 :
Play Length: 00:00:00
Video: NTSC 16:9 (720x480) VBR, Auto Letterboxed
VTS_02 :
Play Length: 00:36:10
Video: NTSC 16:9 (720x480) VBR, Auto Letterboxed
Audio:
Deutsch (Dolby AC3, 2 ch)
Subtitles:
English
VTS_03 :
Play Length: 00:44:47
Video: NTSC 4:3 (720x480) VBR
Audio:
Deutsch (Dolby AC3, 1 ch)
Subtitles:
English
VTS_04 :
Play Length: 00:03:31
Video: NTSC 16:9 (720x480) VBR, Auto Letterboxed
Audio:
Deutsch (Dolby AC3, 1 ch)
Subtitles:
English
VTS_05 :
Play Length: 00:35:32
Video: NTSC 16:9 (720x480) VBR, Auto Letterboxed
Audio:
Deutsch (Dolby AC3, 2 ch)
Subtitles:
English
VTS_06 :
Play Length: 00:00:00
Video: NTSC 4:3 (720x480) VBR

Mediainfo- Диск 1

Общее
Полное имя: F:\Revanche DVD-9_Custom+DVD-9_Criterion#502\Диск 1\VIDEO_TS\VTS_03_1.VOB
Формат : MPEG-PS
Размер файла : 1024 Мбайт
Продолжительность : 15 м.
Режим общего битрейта : Переменный
Общий поток : 9273 Кбит/сек
Видео
Идентификатор : 224 (0xE0)
Формат : MPEG Video
Версия формата : Version 2
Профиль формата : Main@Main
Параметр BVOP формата : Да
Параметр матрицы формата : Выборочная
Параметр GOP формата : M=3, N=12
Продолжительность : 15 м.
Вид битрейта : Переменный
Битрейт : 8065 Кбит/сек
Максимальный битрейт : 9332 Кбит/сек
Ширина : 720 пикселей
Высота : 480 пикселей
Соотношение сторон : 16:9
Частота кадров : 29,970 кадров/сек
Стандарт вещания : NTSC
Цветовое пространство : YUV
Субдискретизация насыщенности : 4:2:0
Битовая глубина : 8 бит
Метод сжатия : С потерями
Бит/(Пиксели*Кадры) : 0.779
Временной код первого кадра : 00:59:41:10
Оригинал временного кода : Group of pictures header
Размер потока : 891 Мбайт (87%)
Аудио #1
Идентификатор : 189 (0xBD)-128 (0x80)
Формат : AC-3
Формат/Информация : Audio Coding 3
Расширение режима : CM (complete main)
Параметр Endianness формата : Big
Режим смешивания : DVD-Video
Продолжительность : 15 м.
Вид битрейта : Постоянный
Битрейт : 192 Кбит/сек
Каналы : 2 канала
Расположение каналов : Front: L R
Частота : 48,0 КГц
Битовая глубина : 16 бит
Метод сжатия : С потерями
Размер потока : 21,2 Мбайт (2%)
Аудио #2
Идентификатор : 189 (0xBD)-129 (0x81)
Формат : AC-3
Формат/Информация : Audio Coding 3
Расширение режима : CM (complete main)
Параметр Endianness формата : Big
Режим смешивания : DVD-Video
Продолжительность : 15 м.
Вид битрейта : Постоянный
Битрейт : 384 Кбит/сек
Каналы : 6 каналов
Расположение каналов : Front: L C R, Side: L R, LFE
Частота : 48,0 КГц
Битовая глубина : 16 бит
Метод сжатия : С потерями
Размер потока : 42,4 Мбайт (4%)
Аудио #3
Идентификатор : 189 (0xBD)-130 (0x82)
Формат : AC-3
Формат/Информация : Audio Coding 3
Расширение режима : CM (complete main)
Параметр Endianness формата : Big
Режим смешивания : DVD-Video
Продолжительность : 15 м.
Вид битрейта : Постоянный
Битрейт : 448 Кбит/сек
Каналы : 6 каналов
Расположение каналов : Front: L C R, Side: L R, LFE
Частота : 48,0 КГц
Битовая глубина : 16 бит
Метод сжатия : С потерями
Размер потока : 49,5 Мбайт (5%)
Текст #1
Идентификатор : 189 (0xBD)-32 (0x20)
Формат : RLE
Формат/Информация : Run-length encoding
Режим смешивания : DVD-Video
Текст #2
Идентификатор : 189 (0xBD)-33 (0x21)
Формат : RLE
Формат/Информация : Run-length encoding
Режим смешивания : DVD-Video
Текст #3
Идентификатор : 189 (0xBD)-34 (0x22)
Формат : RLE
Формат/Информация : Run-length encoding
Режим смешивания : DVD-Video

Mediainfo- Диск 2

Общее
Полное имя: F:\Revanche DVD-9_Custom+DVD-9_Criterion#502\Диск 2\VIDEO_TS\VTS_02_1.VOB
Формат : MPEG-PS
Размер файла : 1024 Мбайт
Продолжительность : 16 м.
Режим общего битрейта : Переменный
Общий поток : 8693 Кбит/сек
Видео
Идентификатор : 224 (0xE0)
Формат : MPEG Video
Версия формата : Version 2
Профиль формата : Main@Main
Параметр BVOP формата : Да
Параметр матрицы формата : Выборочная
Параметр GOP формата : M=3, N=15
Продолжительность : 16 м.
Вид битрейта : Переменный
Битрейт : 8328 Кбит/сек
Максимальный битрейт : 9350 Кбит/сек
Ширина : 720 пикселей
Высота : 480 пикселей
Соотношение сторон : 16:9
Частота кадров : 29,970 кадров/сек
Стандарт вещания : NTSC
Цветовое пространство : YUV
Субдискретизация насыщенности : 4:2:0
Битовая глубина : 8 бит
Тип развёртки : Чересстрочная
Порядок развёртки : Верхнее поле первое
Метод сжатия : С потерями
Бит/(Пиксели*Кадры) : 0.804
Временной код первого кадра : 01:45:24:20
Оригинал временного кода : Group of pictures header
Размер потока : 981 Мбайт (96%)
Аудио
Идентификатор : 189 (0xBD)-128 (0x80)
Формат : AC-3
Формат/Информация : Audio Coding 3
Расширение режима : CM (complete main)
Параметр Endianness формата : Big
Режим смешивания : DVD-Video
Продолжительность : 16 м.
Вид битрейта : Постоянный
Битрейт : 192 Кбит/сек
Каналы : 2 канала
Расположение каналов : Front: L R
Частота : 48,0 КГц
Битовая глубина : 16 бит
Метод сжатия : С потерями
Размер потока : 22,6 Мбайт (2%)
Текст #1
Идентификатор : 189 (0xBD)-32 (0x20)
Формат : RLE
Формат/Информация : Run-length encoding
Режим смешивания : DVD-Video
Текст #2
Идентификатор : 189 (0xBD)-33 (0x21)
Формат : RLE
Формат/Информация : Run-length encoding
Режим смешивания : DVD-Video

Скриншоты меню-Диск 1

Скриншоты фильма-Диск 1

Скриншоты доп. материалов-Диск 1

Скриншоты меню-Диск 2

Скриншоты доп. материалов-Диск 2


Полиграфия

[teatrix.ru].t7248.torrent 
Торрент: Зарегистрирован [ 2015-10-11 11:22 ] · 7030093EB1204E0F8917BE485E0AFC20561D1962

Скачать .torrent

Скачать

79 KB

Статус: проверено
Скачан: 0 раз
Размер: 14.93 GB
terms.php



Быстрый ответ

Имя:

      
Для отправки сообщений необходимо включить JavaScript
Показать сообщения:    

Текущее время: 10-Дек 17:46

Часовой пояс: UTC + 3


Вы можете начинать темы
Вы можете отвечать на сообщения
Вы не можете редактировать свои сообщения
Вы не можете удалять свои сообщения
Вы не можете голосовать в опросах
Вы не можете прикреплять файлы к сообщениям
Вы можете скачивать файлы