Великая красота / La grande bellezza / The Great Beauty (Паоло Соррентино / Paolo Sorrentino) [2013, Италия, Франция, Драма, Комедия, DVD9 (Custom)+DVD5] MVO + Sub Eng, Rus(2 вида) + Original Ita / Criterion Collection#702


Статистика раздачи [Обновить пиров]
Размер:  11.84 GB   |    Зарегистрирован:  1 год 1 месяц   |    Скачан:  0 раз

Полного источника не было: Никогда

 
   
 
 
 

[Цитировать]

Великая красота / La grande bellezza / The Great Beauty / Criterion Collection#702
Страна:Италия, Франция
Студия:Babe Film, Banca Popolare di Vicenza, Biscottificio Verona, Canal+ [fr], Cine, Fonds Eurimages du Conseil de l'Europe, France 2 Cinema, France Televisions, Indigo Film, Lazio Film Commission, Mediaset, Medusa Film S.p.a., Ministero per i Beni e le Attivita Culturali, Pathe Cinema, Programme MEDIA de la Communaute Europeenne, Regione Lazio.
Жанр:Драма, КомедияГод выпуска:2013
Продолжительность:02:21:19
Производитель:The Criterion Collection #702
Перевод :Профессиональный (многоголосый закадровый)
Cубтитры:Английские, Русский (2 вида)
Оригинальная аудиодорожка:Итальянский
Премьера (мир):21.05.2013
Режиссер:Паоло Соррентино / Paolo SorrentinoВ ролях:Тони Сервилло — писатель Джеп Гамбарделла
Карло Вердоне — Романо
Сабрина Ферилли — Рамона
Карло Буччироццо — Лелло Кава
Яя Форте — Трумо
Памела Виллорези — Виола Галатея Ранци — Стефания
Франко Грациози — граф Колонна
Соня Гесснер — графиня Колонна
Джорджио Пазотти — Стефано
Фанни Ардан — камео
Антонелло Вендитти — камео
Описание:Аристократки, нувориши, политики, преступники высокого полёта, журналисты, актёры, декаденствующие отпрыски благородных семейств, священники, художники, подлинные или мнимые интеллектуалы… Всех их поглощает современный Вавилон, пока они ткут канву непрочных взаимоотношений, предаваясь суетной жизни на фоне старинных дворцов, огромных вилл и великолепных террас. Все они здесь, и никто не предстаёт в выгодном свете.
Апатичный и разочарованный 65-летний Джеп Гамбарделла, писатель и журналист, не расстающийся со стаканом джина с тоником, наблюдает за этим парадом влиятельных, но пустых и потерянных людей, которые производят на него гнетущее впечатление. Головокружительная картина потери нравственных ориентиров разворачивается в атмосфере великолепного и безразличного римского лета. Вечный город подобен умершей диве.

Доп. информация:Исходник найден в сети.
Профессиональный (многоголосый, закадровый), русские субтитры 1взяты из раздачи Gahan Dave- - http://teatrix.ru/viewtopic.php?t=7350РеавторингНордер.Огромное Спасибо Всем, без чьей помощи этот релиз не состоялся бы!Сценарий:Паоло Соррентино, Умберто КонтареллоПродюсер:Франческа Чима, Никола Джулиано, Вивьен АсланянОператор:Лука Бигацци
Композитор:Леле Маркителли
Художник:Стефания Челла, Даниэла ЧианчиоМонтаж:Кристьяно Травальоли
Соррентино, Паоло-https://ru.wikipedia.org/wiki/Соррентино,_Паоло Фильм-https://ru.wikipedia.org/wiki/Великая_красотаЗнаете ли вы, что...">

Это интересноСоррентино, Паоло-https://ru.wikipedia.org/wiki/Соррентино,_Паоло Фильм-https://ru.wikipedia.org/wiki/Великая_красотаЗнаете ли вы, что...


Награды и номинации

Рецензия

Софт

PGCDemux (извлечение).
BeSweet, Sony Vegas 9 (звук).
DVD-lab PRO 2, Subtitle Workshop (субтитры).
MuxMan (сборка). DvdReMakePro (финал).

Бонусы:(Без перевода)


Disc 1,2:-
• New conversation between Sorrentino and Italian cultural critic Antonio Monda
• New interview with actor Toni Servillo
• New interview with screenwriter Umberto Contarello
• Deleted scenes
• Trailer
Меню:Английский, анимированное, озвученное.Сэмпл Диск 1:http://multi-up.com/1021623Сэмпл Диск 2:http://multi-up.com/1021624Тип релиза:DVD9 (Custom)+DVD5
Контейнер:DVD-Video
Видео:NTSC 16:9 (720x480) VBR, Auto Letterboxed, 6840 Кбит/сек, 23,976 кадра/сек
Аудио 1:Русский:AC3, 2 ch, 48.0 KHz, 192 Кбит/сек / Профессиональный (многоголосый закадровый)Аудио 2:Итальянский:AC3, 6 ch, 48.0 KHz, 448 Кбит/сек / (Оригинал)Формат субтитров:prerendered (DVD/IDX+SUB)

Dvd Info- Диск 1

Title: Диск 1
Size: 7.91 Gb ( 8 297 070,00 KBytes ) - DVD-9
Enabled regions: 1, 2, 3, 4, 5, 6, 7, 8
VTS_01 :
Play Length: 00:00:00
Video: NTSC 16:9 (720x480) VBR, Auto Letterboxed
VTS_02 :
Play Length: 02:21:19
Video: NTSC 16:9 (720x480) VBR, Auto Letterboxed
Audio:
Russian, AC3, 2/0 (L,R) ch, 192 kbps, Delay 0 mSec
Italiano, AC3, 3/2 (L,C,R,SL,SR)+LFE ch, 448 kbps, Delay 0 mSec
Subtitles:
English
Russian
Russian
VTS_03 :
Play Length: 00:00:20
Video: NTSC 16:9 (720x480) VBR, Auto Pan&Scan
VTS_04 :
Play Length: 00:02:08
Video: NTSC 16:9 (720x480) VBR, Auto Letterboxed
Audio:
Italiano, AC3, 3/2 (L,C,R,SL,SR)+LFE ch, 448 kbps, Delay 0 mSec
Subtitles:
English
VTS_05 :
Play Length: 00:00:00
Video: NTSC 4:3 (720x480) VBR

Dvd Info- Диск 2

Title: Диск 2
Size: 3.92 Gb ( 4 115 184,00 KBytes ) - DVD-5
Enabled regions: 1, 2, 3, 4, 5, 6, 7, 8
VTS_01 :
Play Length: 00:00:00
Video: NTSC 16:9 (720x480) VBR, Auto Letterboxed
VTS_02 :
Play Length: 00:02:45
Video: NTSC 16:9 (720x480) VBR, Auto Letterboxed
Audio:
Italiano, AC3, 1/0 (C) ch, 192 kbps, Delay 0 mSec
Subtitles:
English
VTS_03 :
Play Length: 00:37:57
Video: NTSC 16:9 (720x480) VBR, Auto Letterboxed
Audio:
Italiano, AC3, 1/0 (C) ch, 192 kbps, Delay 0 mSec
Subtitles:
English
VTS_04 :
Play Length: 00:02:15
Video: NTSC 16:9 (720x480) VBR, Auto Letterboxed
Audio:
Italiano, AC3, 2/0 (L,R) ch, 192 kbps, Delay 0 mSec
Subtitles:
English
VTS_05 :
Play Length: 00:11:44
Video: NTSC 16:9 (720x480) VBR, Auto Letterboxed
Audio:
Italiano, AC3, 2/0 (L,R) ch, 192 kbps, Delay 0 mSec
Subtitles:
English
VTS_06 :
Play Length: 00:12:34
Video: NTSC 16:9 (720x480) VBR, Auto Letterboxed
Audio:
Italiano, AC3, 2/0 (L,R) ch, 192 kbps, Delay 0 mSec
Subtitles:
English
VTS_07 :
Play Length: 00:00:00
Video: NTSC 4:3 (720x480) VBR

Mediainfo- Диск 1

Общее
Полное имя: F:\The Great Beauty DVD-9_Custom+DVD-5_Criterion#702\Диск 1\VIDEO_TS\VTS_02_3.VOB
Формат : MPEG-PS
Размер файла : 1024 Мбайт
Продолжительность : 18 м.
Режим общего битрейта : Переменный
Общий поток : 7632 Кбит/сек
Видео
Идентификатор : 224 (0xE0)
Формат : MPEG Video
Версия формата : Version 2
Профиль формата : Main@Main
Параметр BVOP формата : Да
Параметр матрицы формата : Выборочная
Параметр GOP формата : Variable
Продолжительность : 18 м.
Вид битрейта : Переменный
Битрейт : 6840 Кбит/сек
Максимальный битрейт : 9800 Кбит/сек
Ширина : 720 пикселей
Высота : 480 пикселей
Соотношение сторон : 16:9
Частота кадров : 23,976 кадра/сек
Стандарт вещания : NTSC
Цветовое пространство : YUV
Субдискретизация насыщенности : 4:2:0
Битовая глубина : 8 бит
Тип развёртки : Прогрессивная
Порядок развёртки : 2:3 Pulldown
Метод сжатия : С потерями
Бит/(Пиксели*Кадры) : 0.825
Временной код первого кадра : 01:36:32:07
Оригинал временного кода : Group of pictures header
Размер потока : 918 Мбайт (90%)
Аудио #1
Идентификатор : 189 (0xBD)-128 (0x80)
Формат : AC-3
Формат/Информация : Audio Coding 3
Расширение режима : CM (complete main)
Параметр Endianness формата : Big
Режим смешивания : DVD-Video
Продолжительность : 18 м.
Вид битрейта : Постоянный
Битрейт : 192 Кбит/сек
Каналы : 2 канала
Расположение каналов : Front: L R
Частота : 48,0 КГц
Битовая глубина : 16 бит
Метод сжатия : С потерями
Задержка видео : -382 мс.
Размер потока : 25,8 Мбайт (3%)
Аудио #2
Идентификатор : 189 (0xBD)-129 (0x81)
Формат : AC-3
Формат/Информация : Audio Coding 3
Расширение режима : CM (complete main)
Параметр Endianness формата : Big
Режим смешивания : DVD-Video
Продолжительность : 18 м.
Вид битрейта : Постоянный
Битрейт : 448 Кбит/сек
Каналы : 6 каналов
Расположение каналов : Front: L C R, Side: L R, LFE
Частота : 48,0 КГц
Битовая глубина : 16 бит
Метод сжатия : С потерями
Задержка видео : -414 мс.
Размер потока : 60,1 Мбайт (6%)
Текст #1
Идентификатор : 189 (0xBD)-32 (0x20)
Формат : RLE
Формат/Информация : Run-length encoding
Режим смешивания : DVD-Video
Продолжительность : 18 м.
Задержка видео : 1 с. 651 мс.
Текст #2
Идентификатор : 189 (0xBD)-33 (0x21)
Формат : RLE
Формат/Информация : Run-length encoding
Режим смешивания : DVD-Video
Продолжительность : 18 м.
Задержка видео : 1 с. 651 мс.
Текст #3
Идентификатор : 189 (0xBD)-34 (0x22)
Формат : RLE
Формат/Информация : Run-length encoding
Режим смешивания : DVD-Video
Продолжительность : 18 м.
Задержка видео : 1 с. 685 мс.
Текст #4
Идентификатор : 189 (0xBD)-35 (0x23)
Формат : RLE
Формат/Информация : Run-length encoding
Режим смешивания : DVD-Video
Продолжительность : 18 м.
Задержка видео : 1 с. 551 мс.

Mediainfo- Диск 2

Общее
Полное имя : F:\The Great Beauty DVD-9_Custom+DVD-5_Criterion#702\Диск 2\VIDEO_TS\VTS_03_1.VOB
Формат : MPEG-PS
Размер файла : 1024 Мбайт
Продолжительность : 17 м.
Режим общего битрейта : Переменный
Общий поток : 8277 Кбит/сек
Видео
Идентификатор : 224 (0xE0)
Формат : MPEG Video
Версия формата : Version 2
Профиль формата : Main@Main
Параметр BVOP формата : Да
Параметр матрицы формата : Выборочная
Параметр GOP формата : Variable
Продолжительность : 17 м.
Вид битрейта : Переменный
Битрейт : 7921 Кбит/сек
Максимальный битрейт : 9800 Кбит/сек
Ширина : 720 пикселей
Высота : 480 пикселей
Соотношение сторон : 16:9
Частота кадров : 23,976 кадра/сек
Стандарт вещания : NTSC
Цветовое пространство : YUV
Субдискретизация насыщенности : 4:2:0
Битовая глубина : 8 бит
Тип развёртки : Прогрессивная
Порядок развёртки : 2:3 Pulldown
Метод сжатия : С потерями
Бит/(Пиксели*Кадры) : 0.956
Временной код первого кадра : 01:00:00:00
Оригинал временного кода : Group of pictures header
Размер потока : 980 Мбайт (96%)
Аудио
Идентификатор : 189 (0xBD)-128 (0x80)
Формат : AC-3
Формат/Информация : Audio Coding 3
Расширение режима : CM (complete main)
Параметр Endianness формата : Big
Режим смешивания : DVD-Video
Продолжительность : 17 м.
Вид битрейта : Постоянный
Битрейт : 192 Кбит/сек
Каналы : 1 канал
Расположение каналов : Front: C
Частота : 48,0 КГц
Битовая глубина : 16 бит
Метод сжатия : С потерями
Размер потока : 23,7 Мбайт (2%)
Текст #1
Идентификатор : 189 (0xBD)-32 (0x20)
Формат : RLE
Формат/Информация : Run-length encoding
Режим смешивания : DVD-Video
Продолжительность : 17 м.
Задержка видео : 5 с. 71 мс.
Текст #2
Идентификатор : 189 (0xBD)-33 (0x21)
Формат : RLE
Формат/Информация : Run-length encoding
Режим смешивания : DVD-Video
Продолжительность : 17 м.
Задержка видео : 5 с. 71 мс.

Скриншоты меню-Диск 1


Скриншоты фильма-Диск 1

Скриншоты доп. материалов-Диск 1

Скриншоты меню-Диск 2


Скриншоты доп. материалов-Диск 2



Полиграфия

[teatrix.ru].t7253.torrent 
Торрент: Зарегистрирован [ 2015-10-11 11:22 ] · 79EDF2C3C6D57DB5F2643155986818A577FF3E36

Скачать .torrent

Скачать

64 KB

Статус: проверено
Скачан: 0 раз
Размер: 11.84 GB
terms.php



Быстрый ответ

Имя:

      
Для отправки сообщений необходимо включить JavaScript
Показать сообщения:    

Текущее время: 09-Дек 12:43

Часовой пояс: UTC + 3


Вы можете начинать темы
Вы можете отвечать на сообщения
Вы не можете редактировать свои сообщения
Вы не можете удалять свои сообщения
Вы не можете голосовать в опросах
Вы не можете прикреплять файлы к сообщениям
Вы можете скачивать файлы