Йонни Ванг / Джони Ванг / Jonny Vang (Йенс Льен / Jens Lien) [2003, Комедия, драма, DVD9 (custom)] VO + Original (Nor) + Sub (Rus, Nor, Fin, Dan, Eng)


Статистика раздачи [Обновить пиров]
Размер:  6.46 GB   |    Зарегистрирован:  1 год 1 месяц   |    Скачан:  0 раз

Полного источника не было: Никогда

 
   
 
 
 

[Цитировать]

Йонни Ванг / Джони Ванг / Jonny Vang- Страна: Норвегия
Студия: Maipo Film
Жанр: Комедия, драма
Год выпуска: 2003
Продолжительность: 01:22:10-Перевод: Одноголосый закадровый [RussianGuy27]
Cубтитры: русские, норвежские, финские, датские, английские
Оригинальная аудиодорожка: норвежский-Режиссер: Йенс Льен / Jens Lien-В ролях: Аксель Хенни, Лайла Гуди, Фридтьов Сохейм, Марит Андреассен, Бьорн Сундквист, Нилс Вогт, Силджи Саломонсен, Тронд Бренне, Мэдс Ёргенсон-Описание: Драма, комедия и осложнения — все это происходит в сельской местности, где все знают друг друга, и все знают, кто чем занимается. Джонни мечтает о будущем: он хочет стать самостоятельным фермером и бизнесменом и хочет разбогатеть, разводя дождевых червей.-Доп. информация:
- звуковую дорожку с комментариями режиссера заменил на русскую (идет первой по умолчанию);
- русские субтитры добавил вместо шведских (кнопка Меню - "svenska");
Бонусы: дополнительные материалы включают трейлер фильма, фильм о съемках, дополнительные сцены и т.п. - все на норвежском языке
Меню: есть, язык норвежский/финский/датский/шведский, анимированное, озвученное-Sample | IMDB | КиноПоиск-Тип релиза: DVD9 (Custom)
Контейнер: DVD-Video-Видео: PAL 16:9 (720x576) VBR Auto Letterboxed
Аудио 1: AC3, 3/2+LFE ch, 448Kbps, Delay 0 mSec [Russian_VO]
Аудио 2: AC3, 3/2+LFE ch, 448Kbps, Delay 0 mSec [Original_Nor]

Используемое ПО

1. PgcDemux - разборка оригинального DVD;
2. MuxMan - сборка DVD;
3. DVDReMake Pro - финальный проект.

DVDInfo

Title:
Size: 6.46 Gb ( 6 772 260 KBytes ) - DVD-9
Enabled regions: 1, 2, 3, 4, 5, 6, 7, 8
VTS_01 :
Play Length: 01:22:10
Video: PAL 16:9 (720x576) VBR, Auto Letterboxed
Audio:
Russian (Dolby AC3, 6 ch)
Norsk (Dolby AC3, 6 ch)
Subtitles:
Russian
Norsk
Suomi
Dansk
English
VTS_02 :
Play Length: 00:24:51+00:03:54+00:25:06
Video: PAL 4:3 (720x576) VBR
Audio:
Norsk (Dolby AC3, 2 ch)
VTS_03 :
Play Length: 00:01:28+00:00:22
Video: PAL 16:9 (720x576) VBR, Auto Letterboxed
Audio:
Norsk (Dolby AC3, 2 ch)
Menu Video:
PAL 4:3 (720x576) VBR
Menu Audio:
Not specified (Dolby AC3, 2 ch)
Menu Subtitles:
Not specified
Menu English Language Unit :
Root Menu
Audio Menu

MediaInfo

General
Complete name : D:\Мои релизы\Jonny Vang [DVD9]\VIDEO_TS\VIDEO_TS.BUP
Format : DVD Video
Format profile : Menu
File size : 16.0 KiB
Video
ID : 224 (0xE0)
Format : MPEG Video
Format version : Version 2
Bit rate mode : Variable
Width : 720 pixels
Height : 576 pixels
Display aspect ratio : 4:3
Frame rate : 25.000 fps
Standard : PAL
Compression mode : Lossy
Audio
Format : AC-3
Format/Info : Audio Coding 3
Channel(s) : 2 channels
Sampling rate : 48.0 KHz
Compression mode : Lossy
Text
Format : RLE
Format/Info : Run-length encoding
Bit depth : 2 bits
General
Complete name : D:\Мои релизы\Jonny Vang [DVD9]\VIDEO_TS\VIDEO_TS.IFO
Format : DVD Video
Format profile : Menu
File size : 16.0 KiB
Video
ID : 224 (0xE0)
Format : MPEG Video
Format version : Version 2
Bit rate mode : Variable
Width : 720 pixels
Height : 576 pixels
Display aspect ratio : 4:3
Frame rate : 25.000 fps
Standard : PAL
Compression mode : Lossy
Audio
Format : AC-3
Format/Info : Audio Coding 3
Channel(s) : 2 channels
Sampling rate : 48.0 KHz
Compression mode : Lossy
Text
Format : RLE
Format/Info : Run-length encoding
Bit depth : 2 bits
General
Complete name : D:\Мои релизы\Jonny Vang [DVD9]\VIDEO_TS\VIDEO_TS.VOB
Format : MPEG-PS
File size : 18.6 MiB
Duration : 23s 40ms
Overall bit rate : 6 756 Kbps
Video
ID : 224 (0xE0)
Format : MPEG Video
Format version : Version 2
Format profile : Main@Main
Format settings, BVOP : Yes
Format settings, Matrix : Default
Duration : 537ms
Bit rate mode : Variable
Bit rate : 6 430 Kbps
Width : 720 pixels
Height : 576 pixels
Display aspect ratio : 4:3
Frame rate : 25.000 fps
Standard : PAL
Color space : YUV
Chroma subsampling : 4:2:0
Bit depth : 8 bits
Compression mode : Lossy
Bits/(Pixel*Frame) : 0.620
Stream size : 421 KiB (2%)
Audio
ID : 128 (0x80)
Format : AC-3
Format/Info : Audio Coding 3
Mode extension : CM (complete main)
Duration : 23s 40ms
Bit rate mode : Constant
Bit rate : 192 Kbps
Channel(s) : 2 channels
Channel positions : Front: L R
Sampling rate : 48.0 KHz
Bit depth : 16 bits
Compression mode : Lossy
Video delay : -5ms
Stream size : 540 KiB (3%)
Text
ID : 32 (0x20)
Format : RLE
Format/Info : Run-length encoding
Menu
General
Complete name : D:\Мои релизы\Jonny Vang [DVD9]\VIDEO_TS\VTS_01_0.BUP
Format : DVD Video
Format profile : Program
File size : 72.0 KiB
Duration : 1h 22mn
Overall bit rate : 119 bps
Video
ID : 224 (0xE0)
Format : MPEG Video
Format version : Version 2
Duration : 1h 22mn
Bit rate mode : Variable
Width : 720 pixels
Height : 576 pixels
Display aspect ratio : 16:9
Frame rate : 25.000 fps
Standard : PAL
Compression mode : Lossy
Audio #1
ID : 128 (0x80)
Format : AC-3
Format/Info : Audio Coding 3
Duration : 1h 22mn
Channel(s) : 6 channels
Sampling rate : 48.0 KHz
Compression mode : Lossy
Language : Russian
Audio #2
ID : 129 (0x81)
Format : AC-3
Format/Info : Audio Coding 3
Duration : 1h 22mn
Channel(s) : 6 channels
Sampling rate : 48.0 KHz
Compression mode : Lossy
Language : Norwegian
Text #1
ID : 32 (0x20)
Format : RLE
Format/Info : Run-length encoding
Bit depth : 2 bits
Language : Russian
Language, more info : Normal
Text #2
ID : 33 (0x21)
Format : RLE
Format/Info : Run-length encoding
Bit depth : 2 bits
Language : Norwegian
Language, more info : Normal
Text #3
ID : 34 (0x22)
Format : RLE
Format/Info : Run-length encoding
Bit depth : 2 bits
Language : Finnish
Language, more info : Normal
Text #4
ID : 35 (0x23)
Format : RLE
Format/Info : Run-length encoding
Bit depth : 2 bits
Language : Danish
Language, more info : Normal
Text #5
ID : 36 (0x24)
Format : RLE
Format/Info : Run-length encoding
Bit depth : 2 bits
Language : English
Language, more info : Normal
Menu
Duration : 1h 22mn
00:00:00.000 : Chapter 1
00:05:03.280 : Chapter 2
00:09:24.880 : Chapter 3
00:15:01.360 : Chapter 4
00:20:14.320 : Chapter 5
00:23:25.360 : Chapter 6
00:29:39.280 : Chapter 7
00:34:41.680 : Chapter 8
00:40:06.440 : Chapter 9
00:44:01.080 : Chapter 10
00:50:25.080 : Chapter 11
00:54:45.240 : Chapter 12
00:58:04.440 : Chapter 13
01:01:28.920 : Chapter 14
01:04:52.440 : Chapter 15
01:10:17.880 : Chapter 16
01:12:40.920 : Chapter 17
01:18:57.240 : Chapter 18
List (Audio) : 0 / 1
List (Subtitles 4/3) : 0 / 0 / 0 / 0 / 0
List (Subtitles Wide) : 0 / 1 / 2 / 3 / 4
List (Subtitles Letterbox) : 0 / 1 / 2 / 3 / 4
List (Subtitles Pan&Scan) : 0 / 0 / 0 / 0 / 0
General
Complete name : D:\Мои релизы\Jonny Vang [DVD9]\VIDEO_TS\VTS_01_0.IFO
Format : DVD Video
Format profile : Program
File size : 72.0 KiB
Duration : 1h 22mn
Overall bit rate : 119 bps
Video
ID : 224 (0xE0)
Format : MPEG Video
Format version : Version 2
Duration : 1h 22mn
Bit rate mode : Variable
Width : 720 pixels
Height : 576 pixels
Display aspect ratio : 16:9
Frame rate : 25.000 fps
Standard : PAL
Compression mode : Lossy
Audio #1
ID : 128 (0x80)
Format : AC-3
Format/Info : Audio Coding 3
Duration : 1h 22mn
Channel(s) : 6 channels
Sampling rate : 48.0 KHz
Compression mode : Lossy
Language : Russian
Audio #2
ID : 129 (0x81)
Format : AC-3
Format/Info : Audio Coding 3
Duration : 1h 22mn
Channel(s) : 6 channels
Sampling rate : 48.0 KHz
Compression mode : Lossy
Language : Norwegian
Text #1
ID : 32 (0x20)
Format : RLE
Format/Info : Run-length encoding
Bit depth : 2 bits
Language : Russian
Language, more info : Normal
Text #2
ID : 33 (0x21)
Format : RLE
Format/Info : Run-length encoding
Bit depth : 2 bits
Language : Norwegian
Language, more info : Normal
Text #3
ID : 34 (0x22)
Format : RLE
Format/Info : Run-length encoding
Bit depth : 2 bits
Language : Finnish
Language, more info : Normal
Text #4
ID : 35 (0x23)
Format : RLE
Format/Info : Run-length encoding
Bit depth : 2 bits
Language : Danish
Language, more info : Normal
Text #5
ID : 36 (0x24)
Format : RLE
Format/Info : Run-length encoding
Bit depth : 2 bits
Language : English
Language, more info : Normal
Menu
Duration : 1h 22mn
00:00:00.000 : Chapter 1
00:05:03.280 : Chapter 2
00:09:24.880 : Chapter 3
00:15:01.360 : Chapter 4
00:20:14.320 : Chapter 5
00:23:25.360 : Chapter 6
00:29:39.280 : Chapter 7
00:34:41.680 : Chapter 8
00:40:06.440 : Chapter 9
00:44:01.080 : Chapter 10
00:50:25.080 : Chapter 11
00:54:45.240 : Chapter 12
00:58:04.440 : Chapter 13
01:01:28.920 : Chapter 14
01:04:52.440 : Chapter 15
01:10:17.880 : Chapter 16
01:12:40.920 : Chapter 17
01:18:57.240 : Chapter 18
List (Audio) : 0 / 1
List (Subtitles 4/3) : 0 / 0 / 0 / 0 / 0
List (Subtitles Wide) : 0 / 1 / 2 / 3 / 4
List (Subtitles Letterbox) : 0 / 1 / 2 / 3 / 4
List (Subtitles Pan&Scan) : 0 / 0 / 0 / 0 / 0
General
Complete name : D:\Мои релизы\Jonny Vang [DVD9]\VIDEO_TS\VTS_01_0.VOB
Format : MPEG-PS
File size : 107 MiB
Duration : 30s 50ms
Overall bit rate : 30.0 Mbps
Writing library : BitVice MPEG2 Encoder Vn 1.2.5(1) PPC G4 (c) 2002 Innobits AB
Video
ID : 224 (0xE0)
Format : MPEG Video
Format version : Version 2
Format profile : Main@Main
Format settings, BVOP : Yes
Format settings, Matrix : Default
Duration : 365ms
Bit rate mode : Variable
Bit rate : 29.2 Mbps
Width : 720 pixels
Height : 576 pixels
Display aspect ratio : 4:3
Frame rate : 25.000 fps
Standard : PAL
Color space : YUV
Chroma subsampling : 4:2:0
Bit depth : 8 bits
Scan type : Progressive
Compression mode : Lossy
Bits/(Pixel*Frame) : 2.814
Stream size : 1.27 MiB (1%)
Writing library : BitVice MPEG2 Encoder Vn 1.2.5(1) PPC G4 (c) 2002 Innobits AB
Audio
ID : 128 (0x80)
Format : AC-3
Format/Info : Audio Coding 3
Mode extension : CM (complete main)
Duration : 30s 50ms
Bit rate mode : Constant
Bit rate : 192 Kbps
Channel(s) : 2 channels
Channel positions : Front: L R
Sampling rate : 48.0 KHz
Bit depth : 16 bits
Compression mode : Lossy
Video delay : 8ms
Stream size : 704 KiB (1%)
Text
ID : 32 (0x20)
Format : RLE
Format/Info : Run-length encoding
Duration : 93ms
Video delay : 8ms
Menu
General
Complete name : D:\Мои релизы\Jonny Vang [DVD9]\VIDEO_TS\VTS_01_1.VOB
Format : MPEG-PS
File size : 1 024 MiB
Duration : 18mn 1s
Overall bit rate : 7 944 Kbps
Video
ID : 224 (0xE0)
Format : MPEG Video
Format version : Version 2
Format profile : Main@Main
Format settings, BVOP : Yes
Format settings, Matrix : Default
Format settings, GOP : M=3, N=12
Duration : 18mn 1s
Bit rate mode : Variable
Bit rate : 6 890 Kbps
Nominal bit rate : 8 000 Kbps
Width : 720 pixels
Height : 576 pixels
Display aspect ratio : 16:9
Frame rate : 25.000 fps
Standard : PAL
Color space : YUV
Chroma subsampling : 4:2:0
Bit depth : 8 bits
Scan type : Interlaced
Scan order : Top Field First
Compression mode : Lossy
Bits/(Pixel*Frame) : 0.665
Stream size : 888 MiB (87%)
Audio #1
ID : 128 (0x80)
Format : AC-3
Format/Info : Audio Coding 3
Mode extension : CM (complete main)
Duration : 18mn 1s
Bit rate mode : Constant
Bit rate : 448 Kbps
Channel(s) : 6 channels
Channel positions : Front: L C R, Side: L R, LFE
Sampling rate : 48.0 KHz
Bit depth : 16 bits
Compression mode : Lossy
Stream size : 57.7 MiB (6%)
Audio #2
ID : 129 (0x81)
Format : AC-3
Format/Info : Audio Coding 3
Mode extension : CM (complete main)
Duration : 18mn 1s
Bit rate mode : Constant
Bit rate : 448 Kbps
Channel(s) : 6 channels
Channel positions : Front: L C R, Side: L R, LFE
Sampling rate : 48.0 KHz
Bit depth : 16 bits
Compression mode : Lossy
Stream size : 57.7 MiB (6%)
Text #1
ID : 32 (0x20)
Format : RLE
Format/Info : Run-length encoding
Text #2
ID : 33 (0x21)
Format : RLE
Format/Info : Run-length encoding
Text #3
ID : 34 (0x22)
Format : RLE
Format/Info : Run-length encoding
Text #4
ID : 35 (0x23)
Format : RLE
Format/Info : Run-length encoding
Text #5
ID : 36 (0x24)
Format : RLE
Format/Info : Run-length encoding
Menu
General
Complete name : D:\Мои релизы\Jonny Vang [DVD9]\VIDEO_TS\VTS_01_2.VOB
Format : MPEG-PS
File size : 1 024 MiB
Duration : 18mn 11s
Overall bit rate : 7 871 Kbps
Video
ID : 224 (0xE0)
Format : MPEG Video
Format version : Version 2
Format profile : Main@Main
Format settings, BVOP : Yes
Format settings, Matrix : Default
Format settings, GOP : M=3, N=12
Duration : 18mn 11s
Bit rate mode : Variable
Bit rate : 6 819 Kbps
Nominal bit rate : 8 000 Kbps
Width : 720 pixels
Height : 576 pixels
Display aspect ratio : 16:9
Frame rate : 25.000 fps
Standard : PAL
Color space : YUV
Chroma subsampling : 4:2:0
Bit depth : 8 bits
Scan type : Interlaced
Scan order : Top Field First
Compression mode : Lossy
Bits/(Pixel*Frame) : 0.658
Stream size : 887 MiB (87%)
Audio #1
ID : 128 (0x80)
Format : AC-3
Format/Info : Audio Coding 3
Mode extension : CM (complete main)
Duration : 18mn 11s
Bit rate mode : Constant
Bit rate : 448 Kbps
Channel(s) : 6 channels
Channel positions : Front: L C R, Side: L R, LFE
Sampling rate : 48.0 KHz
Bit depth : 16 bits
Compression mode : Lossy
Video delay : -384ms
Stream size : 58.3 MiB (6%)
Audio #2
ID : 129 (0x81)
Format : AC-3
Format/Info : Audio Coding 3
Mode extension : CM (complete main)
Duration : 18mn 11s
Bit rate mode : Constant
Bit rate : 448 Kbps
Channel(s) : 6 channels
Channel positions : Front: L C R, Side: L R, LFE
Sampling rate : 48.0 KHz
Bit depth : 16 bits
Compression mode : Lossy
Video delay : -384ms
Stream size : 58.3 MiB (6%)
Text #1
ID : 33 (0x21)
Format : RLE
Format/Info : Run-length encoding
Text #2
ID : 34 (0x22)
Format : RLE
Format/Info : Run-length encoding
Text #3
ID : 35 (0x23)
Format : RLE
Format/Info : Run-length encoding
Menu
General
Complete name : D:\Мои релизы\Jonny Vang [DVD9]\VIDEO_TS\VTS_01_3.VOB
Format : MPEG-PS
File size : 1 024 MiB
Duration : 17mn 20s
Overall bit rate : 8 258 Kbps
Video
ID : 224 (0xE0)
Format : MPEG Video
Format version : Version 2
Format profile : Main@Main
Format settings, BVOP : Yes
Format settings, Matrix : Default
Format settings, GOP : M=3, N=12
Duration : 17mn 19s
Bit rate mode : Variable
Bit rate : 7 198 Kbps
Nominal bit rate : 8 000 Kbps
Width : 720 pixels
Height : 576 pixels
Display aspect ratio : 16:9
Frame rate : 25.000 fps
Standard : PAL
Color space : YUV
Chroma subsampling : 4:2:0
Bit depth : 8 bits
Scan type : Interlaced
Scan order : Top Field First
Compression mode : Lossy
Bits/(Pixel*Frame) : 0.694
Stream size : 892 MiB (87%)
Audio #1
ID : 128 (0x80)
Format : AC-3
Format/Info : Audio Coding 3
Mode extension : CM (complete main)
Duration : 17mn 20s
Bit rate mode : Constant
Bit rate : 448 Kbps
Channel(s) : 6 channels
Channel positions : Front: L C R, Side: L R, LFE
Sampling rate : 48.0 KHz
Bit depth : 16 bits
Compression mode : Lossy
Video delay : -576ms
Stream size : 55.6 MiB (5%)
Audio #2
ID : 129 (0x81)
Format : AC-3
Format/Info : Audio Coding 3
Mode extension : CM (complete main)
Duration : 17mn 20s
Bit rate mode : Constant
Bit rate : 448 Kbps
Channel(s) : 6 channels
Channel positions : Front: L C R, Side: L R, LFE
Sampling rate : 48.0 KHz
Bit depth : 16 bits
Compression mode : Lossy
Video delay : -576ms
Stream size : 55.6 MiB (5%)
Text
ID : 36 (0x24)
Format : RLE
Format/Info : Run-length encoding
Video delay : -80ms
Menu
General
Complete name : D:\Мои релизы\Jonny Vang [DVD9]\VIDEO_TS\VTS_01_4.VOB
Format : MPEG-PS
File size : 1 024 MiB
Duration : 18mn 35s
Overall bit rate : 7 700 Kbps
Video
ID : 224 (0xE0)
Format : MPEG Video
Format version : Version 2
Format profile : Main@Main
Format settings, BVOP : Yes
Format settings, Matrix : Default
Format settings, GOP : M=3, N=12
Duration : 18mn 35s
Bit rate mode : Variable
Bit rate : 6 651 Kbps
Nominal bit rate : 8 000 Kbps
Width : 720 pixels
Height : 576 pixels
Display aspect ratio : 16:9
Frame rate : 25.000 fps
Standard : PAL
Color space : YUV
Chroma subsampling : 4:2:0
Bit depth : 8 bits
Scan type : Interlaced
Scan order : Top Field First
Compression mode : Lossy
Bits/(Pixel*Frame) : 0.641
Stream size : 884 MiB (86%)
Audio #1
ID : 128 (0x80)
Format : AC-3
Format/Info : Audio Coding 3
Mode extension : CM (complete main)
Duration : 18mn 35s
Bit rate mode : Constant
Bit rate : 448 Kbps
Channel(s) : 6 channels
Channel positions : Front: L C R, Side: L R, LFE
Sampling rate : 48.0 KHz
Bit depth : 16 bits
Compression mode : Lossy
Video delay : -744ms
Stream size : 59.6 MiB (6%)
Audio #2
ID : 129 (0x81)
Format : AC-3
Format/Info : Audio Coding 3
Mode extension : CM (complete main)
Duration : 18mn 35s
Bit rate mode : Constant
Bit rate : 448 Kbps
Channel(s) : 6 channels
Channel positions : Front: L C R, Side: L R, LFE
Sampling rate : 48.0 KHz
Bit depth : 16 bits
Compression mode : Lossy
Video delay : -744ms
Stream size : 59.6 MiB (6%)
Text #1
ID : 33 (0x21)
Format : RLE
Format/Info : Run-length encoding
Video delay : -120ms
Text #2
ID : 34 (0x22)
Format : RLE
Format/Info : Run-length encoding
Video delay : -120ms
Text #3
ID : 35 (0x23)
Format : RLE
Format/Info : Run-length encoding
Video delay : -120ms
Text #4
ID : 36 (0x24)
Format : RLE
Format/Info : Run-length encoding
Video delay : -120ms
Menu
General
Complete name : D:\Мои релизы\Jonny Vang [DVD9]\VIDEO_TS\VTS_01_5.VOB
Format : MPEG-PS
File size : 513 MiB
Duration : 10mn 2s
Overall bit rate : 7 148 Kbps
Video
ID : 224 (0xE0)
Format : MPEG Video
Format version : Version 2
Format profile : Main@Main
Format settings, BVOP : Yes
Format settings, Matrix : Default
Format settings, GOP : M=3, N=12
Duration : 10mn 1s
Bit rate mode : Variable
Bit rate : 6 110 Kbps
Nominal bit rate : 8 000 Kbps
Width : 720 pixels
Height : 576 pixels
Display aspect ratio : 16:9
Frame rate : 25.000 fps
Standard : PAL
Color space : YUV
Chroma subsampling : 4:2:0
Bit depth : 8 bits
Scan type : Interlaced
Scan order : Top Field First
Compression mode : Lossy
Bits/(Pixel*Frame) : 0.589
Stream size : 438 MiB (85%)
Audio #1
ID : 128 (0x80)
Format : AC-3
Format/Info : Audio Coding 3
Mode extension : CM (complete main)
Duration : 10mn 2s
Bit rate mode : Constant
Bit rate : 448 Kbps
Channel(s) : 6 channels
Channel positions : Front: L C R, Side: L R, LFE
Sampling rate : 48.0 KHz
Bit depth : 16 bits
Compression mode : Lossy
Video delay : -680ms
Stream size : 32.2 MiB (6%)
Audio #2
ID : 129 (0x81)
Format : AC-3
Format/Info : Audio Coding 3
Mode extension : CM (complete main)
Duration : 10mn 2s
Bit rate mode : Constant
Bit rate : 448 Kbps
Channel(s) : 6 channels
Channel positions : Front: L C R, Side: L R, LFE
Sampling rate : 48.0 KHz
Bit depth : 16 bits
Compression mode : Lossy
Video delay : -680ms
Stream size : 32.2 MiB (6%)
Text #1
ID : 33 (0x21)
Format : RLE
Format/Info : Run-length encoding
Video delay : 2s 160ms
Text #2
ID : 34 (0x22)
Format : RLE
Format/Info : Run-length encoding
Video delay : 2s 160ms
Text #3
ID : 35 (0x23)
Format : RLE
Format/Info : Run-length encoding
Video delay : 2s 160ms
Text #4
ID : 36 (0x24)
Format : RLE
Format/Info : Run-length encoding
Video delay : 2s 160ms
Menu
General
Complete name : D:\Мои релизы\Jonny Vang [DVD9]\VIDEO_TS\VTS_02_0.BUP
Format : DVD Video
Format profile : Program
File size : 30.0 KiB
Duration : 24mn 51s
Overall bit rate : 164 bps
Video
ID : 224 (0xE0)
Format : MPEG Video
Format version : Version 2
Duration : 24mn 51s
Bit rate mode : Variable
Width : 720 pixels
Height : 576 pixels
Display aspect ratio : 4:3
Frame rate : 25.000 fps
Standard : PAL
Compression mode : Lossy
Audio
ID : 128 (0x80)
Format : AC-3
Format/Info : Audio Coding 3
Duration : 24mn 51s
Channel(s) : 2 channels
Sampling rate : 48.0 KHz
Compression mode : Lossy
Language : Norwegian
Text #1
Format : RLE
Format/Info : Run-length encoding
Bit depth : 2 bits
Language : Swedish
Language, more info : Normal
Text #2
Format : RLE
Format/Info : Run-length encoding
Bit depth : 2 bits
Language : Norwegian
Language, more info : Normal
Text #3
Format : RLE
Format/Info : Run-length encoding
Bit depth : 2 bits
Language : Finnish
Language, more info : Normal
Text #4
Format : RLE
Format/Info : Run-length encoding
Bit depth : 2 bits
Language : Danish
Language, more info : Normal
Text #5
Format : RLE
Format/Info : Run-length encoding
Bit depth : 2 bits
Language : English
Language, more info : Normal
Menu #1
Duration : 24mn 51s
00:00:00.000 : Chapter 1
List (Audio) : 0
Menu #2
Duration : 3mn 54s
00:00:00.000 : Chapter 1
00:00:35.000 : Chapter 2
00:00:41.000 : Chapter 3
List (Audio) : 0
General
Complete name : D:\Мои релизы\Jonny Vang [DVD9]\VIDEO_TS\VTS_02_0.IFO
Format : DVD Video
Format profile : Program
File size : 30.0 KiB
Duration : 24mn 51s
Overall bit rate : 164 bps
Video
ID : 224 (0xE0)
Format : MPEG Video
Format version : Version 2
Duration : 24mn 51s
Bit rate mode : Variable
Width : 720 pixels
Height : 576 pixels
Display aspect ratio : 4:3
Frame rate : 25.000 fps
Standard : PAL
Compression mode : Lossy
Audio
ID : 128 (0x80)
Format : AC-3
Format/Info : Audio Coding 3
Duration : 24mn 51s
Channel(s) : 2 channels
Sampling rate : 48.0 KHz
Compression mode : Lossy
Language : Norwegian
Text #1
Format : RLE
Format/Info : Run-length encoding
Bit depth : 2 bits
Language : Swedish
Language, more info : Normal
Text #2
Format : RLE
Format/Info : Run-length encoding
Bit depth : 2 bits
Language : Norwegian
Language, more info : Normal
Text #3
Format : RLE
Format/Info : Run-length encoding
Bit depth : 2 bits
Language : Finnish
Language, more info : Normal
Text #4
Format : RLE
Format/Info : Run-length encoding
Bit depth : 2 bits
Language : Danish
Language, more info : Normal
Text #5
Format : RLE
Format/Info : Run-length encoding
Bit depth : 2 bits
Language : English
Language, more info : Normal
Menu #1
Duration : 24mn 51s
00:00:00.000 : Chapter 1
List (Audio) : 0
Menu #2
Duration : 3mn 54s
00:00:00.000 : Chapter 1
00:00:35.000 : Chapter 2
00:00:41.000 : Chapter 3
List (Audio) : 0
General
Complete name : D:\Мои релизы\Jonny Vang [DVD9]\VIDEO_TS\VTS_02_0.VOB
Format : MPEG-PS
File size : 10.0 KiB
Duration : 40ms
Overall bit rate : 2 048 Kbps
Video
ID : 224 (0xE0)
Format : MPEG Video
Format version : Version 2
Format profile : Main@Main
Format settings, BVOP : No
Format settings, Matrix : Default
Duration : 40ms
Bit rate mode : Variable
Bit rate : 9 000 Kbps
Width : 720 pixels
Height : 576 pixels
Display aspect ratio : 4:3
Frame rate : 25.000 fps
Standard : PAL
Color space : YUV
Chroma subsampling : 4:2:0
Bit depth : 8 bits
Scan type : Progressive
Scan order : Top Field First
Compression mode : Lossy
Bits/(Pixel*Frame) : 0.868
Stream size : 43.9 KiB
Menu
General
Complete name : D:\Мои релизы\Jonny Vang [DVD9]\VIDEO_TS\VTS_02_1.VOB
Format : MPEG-PS
File size : 1 024 MiB
Duration : 1mn 35s
Overall bit rate : 89.8 Mbps
Video
ID : 224 (0xE0)
Format : MPEG Video
Format version : Version 2
Format profile : Main@Main
Format settings, BVOP : Yes
Format settings, Matrix : Default
Format settings, GOP : M=3, N=12
Duration : 1mn 35s
Bit rate mode : Variable
Bit rate : 87.8 Mbps
Nominal bit rate : 8 000 Kbps
Width : 720 pixels
Height : 576 pixels
Display aspect ratio : 4:3
Frame rate : 25.000 fps
Standard : PAL
Color space : YUV
Chroma subsampling : 4:2:0
Bit depth : 8 bits
Scan type : Interlaced
Scan order : Top Field First
Compression mode : Lossy
Bits/(Pixel*Frame) : 8.473
Stream size : 1 001 MiB (98%)
Audio
ID : 128 (0x80)
Format : AC-3
Format/Info : Audio Coding 3
Mode extension : CM (complete main)
Duration : 1mn 35s
Bit rate mode : Constant
Bit rate : 192 Kbps
Channel(s) : 2 channels
Channel positions : Front: L R
Sampling rate : 48.0 KHz
Bit depth : 16 bits
Compression mode : Lossy
Stream size : 2.19 MiB (0%)
Menu
General
Complete name : D:\Мои релизы\Jonny Vang [DVD9]\VIDEO_TS\VTS_02_2.VOB
Format : MPEG-PS
File size : 799 MiB
Duration : 23mn 30s
Overall bit rate : 4 750 Kbps
Video
ID : 224 (0xE0)
Format : MPEG Video
Format version : Version 2
Format profile : Main@Main
Format settings, BVOP : Yes
Format settings, Matrix : Default
Format settings, GOP : M=3, N=12
Duration : 23mn 30s
Bit rate mode : Variable
Bit rate : 4 463 Kbps
Nominal bit rate : 8 000 Kbps
Width : 720 pixels
Height : 576 pixels
Display aspect ratio : 4:3
Frame rate : 25.000 fps
Standard : PAL
Color space : YUV
Chroma subsampling : 4:2:0
Bit depth : 8 bits
Scan type : Interlaced
Scan order : Top Field First
Compression mode : Lossy
Bits/(Pixel*Frame) : 0.430
Stream size : 750 MiB (94%)
Audio
ID : 128 (0x80)
Format : AC-3
Format/Info : Audio Coding 3
Mode extension : CM (complete main)
Duration : 23mn 30s
Bit rate mode : Constant
Bit rate : 192 Kbps
Channel(s) : 2 channels
Channel positions : Front: L R
Sampling rate : 48.0 KHz
Bit depth : 16 bits
Compression mode : Lossy
Video delay : -384ms
Stream size : 32.3 MiB (4%)
Menu
General
Complete name : D:\Мои релизы\Jonny Vang [DVD9]\VIDEO_TS\VTS_03_0.BUP
Format : DVD Video
Format profile : Program
File size : 18.0 KiB
Duration : 1mn 28s
Overall bit rate : 1 668 bps
Video
ID : 224 (0xE0)
Format : MPEG Video
Format version : Version 2
Duration : 1mn 28s
Bit rate mode : Variable
Width : 720 pixels
Height : 576 pixels
Display aspect ratio : 16:9
Frame rate : 25.000 fps
Standard : PAL
Compression mode : Lossy
Audio
ID : 128 (0x80)
Format : AC-3
Format/Info : Audio Coding 3
Duration : 1mn 28s
Channel(s) : 2 channels
Sampling rate : 48.0 KHz
Compression mode : Lossy
Language : Norwegian
Text #1
Format : RLE
Format/Info : Run-length encoding
Bit depth : 2 bits
Language : Swedish
Language, more info : Normal
Text #2
Format : RLE
Format/Info : Run-length encoding
Bit depth : 2 bits
Language : Norwegian
Language, more info : Normal
Text #3
Format : RLE
Format/Info : Run-length encoding
Bit depth : 2 bits
Language : Finnish
Language, more info : Normal
Text #4
Format : RLE
Format/Info : Run-length encoding
Bit depth : 2 bits
Language : Danish
Language, more info : Normal
Text #5
Format : RLE
Format/Info : Run-length encoding
Bit depth : 2 bits
Language : English
Language, more info : Normal
Menu #1
Duration : 1mn 28s
00:00:00.000 : Chapter 1
List (Audio) : 0
Menu #2
Duration : 22s 400ms
00:00:00.000 : Chapter 1
List (Audio) : 0
Menu #3
General
Complete name : D:\Мои релизы\Jonny Vang [DVD9]\VIDEO_TS\VTS_03_0.IFO
Format : DVD Video
Format profile : Program
File size : 18.0 KiB
Duration : 1mn 28s
Overall bit rate : 1 668 bps
Video
ID : 224 (0xE0)
Format : MPEG Video
Format version : Version 2
Duration : 1mn 28s
Bit rate mode : Variable
Width : 720 pixels
Height : 576 pixels
Display aspect ratio : 16:9
Frame rate : 25.000 fps
Standard : PAL
Compression mode : Lossy
Audio
ID : 128 (0x80)
Format : AC-3
Format/Info : Audio Coding 3
Duration : 1mn 28s
Channel(s) : 2 channels
Sampling rate : 48.0 KHz
Compression mode : Lossy
Language : Norwegian
Text #1
Format : RLE
Format/Info : Run-length encoding
Bit depth : 2 bits
Language : Swedish
Language, more info : Normal
Text #2
Format : RLE
Format/Info : Run-length encoding
Bit depth : 2 bits
Language : Norwegian
Language, more info : Normal
Text #3
Format : RLE
Format/Info : Run-length encoding
Bit depth : 2 bits
Language : Finnish
Language, more info : Normal
Text #4
Format : RLE
Format/Info : Run-length encoding
Bit depth : 2 bits
Language : Danish
Language, more info : Normal
Text #5
Format : RLE
Format/Info : Run-length encoding
Bit depth : 2 bits
Language : English
Language, more info : Normal
Menu #1
Duration : 1mn 28s
00:00:00.000 : Chapter 1
List (Audio) : 0
Menu #2
Duration : 22s 400ms
00:00:00.000 : Chapter 1
List (Audio) : 0
Menu #3
General
Complete name : D:\Мои релизы\Jonny Vang [DVD9]\VIDEO_TS\VTS_03_0.VOB
Format : MPEG-PS
File size : 10.0 KiB
Duration : 40ms
Overall bit rate : 2 048 Kbps
Video
ID : 224 (0xE0)
Format : MPEG Video
Format version : Version 2
Format profile : Main@Main
Format settings, BVOP : No
Format settings, Matrix : Default
Duration : 40ms
Bit rate mode : Variable
Bit rate : 9 000 Kbps
Width : 720 pixels
Height : 576 pixels
Display aspect ratio : 4:3
Frame rate : 25.000 fps
Standard : PAL
Color space : YUV
Chroma subsampling : 4:2:0
Bit depth : 8 bits
Scan type : Progressive
Scan order : Top Field First
Compression mode : Lossy
Bits/(Pixel*Frame) : 0.868
Stream size : 43.9 KiB
Menu
General
Complete name : D:\Мои релизы\Jonny Vang [DVD9]\VIDEO_TS\VTS_03_1.VOB
Format : MPEG-PS
File size : 55.6 MiB
Duration : 22s 48ms
Overall bit rate : 21.2 Mbps
Video
ID : 224 (0xE0)
Format : MPEG Video
Format version : Version 2
Format profile : Main@Main
Format settings, BVOP : Yes
Format settings, Matrix : Default
Format settings, GOP : M=3, N=12
Duration : 22s 0ms
Bit rate mode : Variable
Bit rate : 20.5 Mbps
Nominal bit rate : 8 000 Kbps
Width : 720 pixels
Height : 576 pixels
Display aspect ratio : 16:9
Frame rate : 25.000 fps
Standard : PAL
Color space : YUV
Chroma subsampling : 4:2:0
Bit depth : 8 bits
Scan type : Interlaced
Scan order : Top Field First
Compression mode : Lossy
Bits/(Pixel*Frame) : 1.981
Stream size : 53.9 MiB (97%)
Audio
ID : 128 (0x80)
Format : AC-3
Format/Info : Audio Coding 3
Mode extension : CM (complete main)
Duration : 22s 48ms
Bit rate mode : Constant
Bit rate : 192 Kbps
Channel(s) : 2 channels
Channel positions : Front: L R
Sampling rate : 48.0 KHz
Bit depth : 16 bits
Compression mode : Lossy
Stream size : 517 KiB (1%)
Menu

Скриншоты меню

Скриншоты

Скриншоты доп. материалов

[teatrix.ru].t7263.torrent 
Торрент: Зарегистрирован [ 2015-10-11 11:22 ] · 9F6444ADCAC582EDDDB292916EC436785554E28F

Скачать .torrent

Скачать

34 KB

Статус: проверено
Скачан: 0 раз
Размер: 6.46 GB
terms.php



Быстрый ответ

Имя:

      
Для отправки сообщений необходимо включить JavaScript
Показать сообщения:    

Текущее время: 09-Дек 14:41

Часовой пояс: UTC + 3


Вы можете начинать темы
Вы можете отвечать на сообщения
Вы не можете редактировать свои сообщения
Вы не можете удалять свои сообщения
Вы не можете голосовать в опросах
Вы не можете прикреплять файлы к сообщениям
Вы можете скачивать файлы