Нимфоманка: Часть 1-2 / Nymphomaniac: Vol. I-II (Ларс фон Триер / Lars von Trier) [2013, Дания, Германия, Франция, Бельгия, драма, эротика, 2хDVD9 (Custom)] AVO (Юрий Сербин) + Sub Eng, Esp, Rus + Original Eng


Статистика раздачи [Обновить пиров]
Размер:  14.85 GB   |    Зарегистрирован:  1 год 1 месяц   |    Скачан:  0 раз

Полного источника не было: Никогда

 
   
 
 
 

[Цитировать]

Нимфоманка: Часть 1-2 / Nymphomaniac: Vol. I-II - «Забудь о любви»Часть 1 / Vol. I Страна:Дания, Германия, Франция, Бельгия
Студия:Artificial Eye, Caviar, Caviar Films, Concorde Filmverleih GmbH, European Film Bonds, Film i Vast, Heimatfilm, Les Films du Losange, Slot Machine, Zentropa Entertainments, Zentropa International Koln.
Жанр:Драма
Год выпуска:2013
Продолжительность:01:57:21
Перевод 1:Авторский (одноголосый закадровый) Юрий СербинПеревод 2:Субтитры
Cубтитры:Английские, Испанские, Русские
Оригинальная аудиодорожка:Английский
Премьера (мир):25.12.2013
Режиссер:Ларс фон Триер / Lars von TrierВ ролях:Шарлотта Генсбур, Стэйси Мартин, Стеллан Скарсгард, Шайа ЛаБаф, Кристиан Слэйтер, Ума Турман, Софи Кеннеди Кларк, Йенс Альбинус, Николас Бро, Фелисити Гилберт
Описание:Это светлая и поэтичная история эротических переживаний женщины от рождения до пятидесятилетия, рассказанная от лица главной героини, женщины по имени Джо, поставившей себе диагноз — нимфомания. Холодным зимним утром Селигман, немолодой одинокий холостяк, натыкается в переулке на Джо, избитую и находящуюся в полубессознательном состоянии. Доставив женщину домой, он рассматривает ее раны и задается вопросом, как дошла она до такой жизни. Джо рассказывает Селигману историю своей насыщенной молодости, изобилующую параллельными сюжетами и неожиданными отступлениями.
Доп. информация:Исходник найден в сети.
Авторский (одноголосый, закадровый) Юрий СербинРеавторинг Нордер.Огромное Спасибо Всем, без чьей помощи этот релиз не состоялся бы!Сценарий:Ларс фон ТриерПродюсер:Луиза Вест, Джессика Аск, Беттина БрокемперОператор:Мануэль Альберто Кларо
Художник:Симона Грау, Александр Шерер, Манон Расмуссен
Монтаж:Мортен Хёйбьерг, Якоб Сечер Шульзингер, Молли Марлен Стенсгаард
Фон Триер, Ларс-https://ru.wikipedia.org/wiki/Фон_Триер,_Ларс Фильм-https://ru.wikipedia.org/wiki/Нимфоманка_(фильм)Знаете ли вы, что...">

Это интересноФон Триер, Ларс-https://ru.wikipedia.org/wiki/Фон_Триер,_Ларс Фильм-https://ru.wikipedia.org/wiki/Нимфоманка_(фильм)Знаете ли вы, что...


Награды и номинации

Награды и номинации
2014 — премия «Бодил» за лучшую женскую роль (Шарлотта Генсбур), а также 5 номинаций: лучший фильм (Ларс фон Триер), лучшая мужская роль (Стеллан Скарсгорд), лучшая женская роль (Стэйси Мартин), лучшая женская роль второго плана (Ума Турман), лучшая мужская роль второго плана (Джейми Белл).
2014 — номинация на кинопремию Северного Совета (Ларс фон Триер).
2014 — 3 номинации на премию Европейской киноакадемии: лучший фильм, лучшая мужская роль (Стеллан Скарсгард), лучшая женская роль (Шарлотта Генсбур).

Рецензия

Софт

PGCDemux (извлечение).
BeSweet, Sony Vegas 9 (звук).
DVD-lab PRO 2, Subtitle Workshop (субтитры).
MuxMan (сборка). DvdReMakePro (финал).

Бонусы:(Без перевода)

Возраст: 18+Меню:Английский, анимированное, озвученное.Сэмпл :http://multi-up.com/1020427
Тип релиза:DVD9 (Custom)
Контейнер:DVD-Video
Видео:NTSC 16:9 (720x480) VBR, Auto Letterboxed, 6602 Кбит/сек, 23,976 кадра/сек
Аудио 1:Русский:AC3, 6 ch, 48.0 KHz, 448 Кбит/сек / Авторский (Одноголосый, закадровый) Ю.Сербин
Аудио 2:Английский:AC3, 6 ch, 48.0 KHz, 448 Кбит/сек / (Оригинал)
Формат субтитров:prerendered (DVD/IDX+SUB)

Dvd Info


Title: DISC_1
Size: 7.08 Gb ( 7 425 150,00 KBytes ) - DVD-9
Enabled regions: 1, 2, 3, 4, 5, 6, 7, 8
VTS_01 :
Play Length: 01:57:21
Video: NTSC 16:9 (720x480) VBR, Auto Letterboxed
Audio:
Russian, AC3, 3/2 (L,C,R,SL,SR)+LFE ch, 448 kbps, Delay 0 mSec
English, AC3, 3/2 (L,C,R,SL,SR)+LFE ch, 448 kbps, Delay 0 mSec
Subtitles:
English
Espanol
Russian
VTS_02 :
Play Length: 00:09:39
Video: NTSC 16:9 (720x480) VBR, Auto Letterboxed
Audio:
English, AC3, 2/0 (L,R) ch, 192 kbps, Delay 0 mSec
VTS_03 :
Play Length: 00:03:01
Video: NTSC 16:9 (720x480) VBR, Auto Letterboxed
Audio:
English, AC3, 2/0 (L,R) ch, 192 kbps, Delay 0 mSec
VTS_04 :
Play Length: 00:01:47
Video: NTSC 16:9 (720x480) VBR, Auto Letterboxed
Audio:
English, AC3, 3/2 (L,C,R,SL,SR)+LFE ch, 448 kbps, Delay 0 mSec
VTS_05 :
Play Length: 00:00:12
Video: NTSC 16:9 (720x480) VBR, Auto Letterboxed
Audio:
English, AC3, 2/0 (L,R) ch, 192 kbps, Delay 0 mSec
VTS_06 :
Play Length: 00:00:09
Video: NTSC 16:9 (720x480) VBR, Auto Pan&Scan
Audio:
English, AC3, 2/0 (L,R) ch, 192 kbps, Delay 0 mSec
VTS_07 :
Play Length: 00:02:08
Video: NTSC 16:9 (720x480) VBR, Auto Letterboxed
Audio:
English, AC3, 3/2 (L,C,R,SL,SR)+LFE ch, 448 kbps, Delay 0 mSec
VTS_08 :
Play Length: 00:02:08
Video: NTSC 16:9 (720x480) VBR, Auto Letterboxed
Audio:
English, AC3, 3/2 (L,C,R,SL,SR)+LFE ch, 448 kbps, Delay 0 mSec
VTS_09 :
Play Length: 00:02:12
Video: NTSC 16:9 (720x480) VBR, Auto Letterboxed
Audio:
English, AC3, 3/2 (L,C,R,SL,SR)+LFE ch, 448 kbps, Delay 0 mSec
VTS_10 :
Play Length: 00:02:23
Video: NTSC 16:9 (720x480) VBR, Auto Letterboxed
Audio:
English, AC3, 3/2 (L,C,R,SL,SR)+LFE ch, 448 kbps, Delay 0 mSec
VTS_11 :
Play Length: 00:02:13
Video: NTSC 16:9 (720x480) VBR, Auto Letterboxed
Audio:
English, AC3, 3/2 (L,C,R,SL,SR)+LFE ch, 448 kbps, Delay 0 mSec
VTS_12 :
Play Length: 00:00:32
Video: NTSC 16:9 (720x480) VBR, Auto Letterboxed
Audio:
English, AC3, 2/0 (L,R) ch, 192 kbps, Delay 0 mSec
VTS_13 :
Play Length: 00:00:12
Video: NTSC 16:9 (720x480) VBR, Auto Letterboxed
Audio:
English, AC3, 2/0 (L,R) ch, 192 kbps, Delay 0 mSec
VTS_14 :
Play Length: 00:00:13
Video: NTSC 16:9 (720x480) VBR, Auto Pan&Scan
Audio:
English, AC3, 2/0 (L,R) ch, 192 kbps, Delay 0 mSec

MediaInfo

Общее
Полное имя: F:\Nymphomaniac Vol I-II\DISC_1\VIDEO_TS\VTS_01_1.VOB
Формат : MPEG-PS
Размер файла : 1024 Мбайт
Продолжительность : 18 м.
Режим общего битрейта : Переменный
Общий поток : 7650 Кбит/сек
Видео
Идентификатор : 224 (0xE0)
Формат : MPEG Video
Версия формата : Version 2
Профиль формата : Main@Main
Параметр BVOP формата : Да
Параметр матрицы формата : Выборочная
Параметр GOP формата : Variable
Продолжительность : 18 м.
Вид битрейта : Переменный
Битрейт : 6602 Кбит/сек
Максимальный битрейт : 9800 Кбит/сек
Ширина : 720 пикселей
Высота : 480 пикселей
Соотношение сторон : 16:9
Частота кадров : 23,976 кадра/сек
Стандарт вещания : NTSC
Цветовое пространство : YUV
Субдискретизация насыщенности : 4:2:0
Битовая глубина : 8 бит
Тип развёртки : Прогрессивная
Порядок развёртки : 2:3 Pulldown
Метод сжатия : С потерями
Бит/(Пиксели*Кадры) : 0.797
Временной код первого кадра : 00:59:52;00
Оригинал временного кода : Group of pictures header
Размер потока : 884 Мбайт (86%)
Аудио #1
Идентификатор : 189 (0xBD)-128 (0x80)
Формат : AC-3
Формат/Информация : Audio Coding 3
Расширение режима : CM (complete main)
Параметр Endianness формата : Big
Режим смешивания : DVD-Video
Продолжительность : 18 м.
Вид битрейта : Постоянный
Битрейт : 448 Кбит/сек
Каналы : 6 каналов
Расположение каналов : Front: L C R, Side: L R, LFE
Частота : 48,0 КГц
Битовая глубина : 16 бит
Метод сжатия : С потерями
Размер потока : 60,0 Мбайт (6%)
Аудио #2
Идентификатор : 189 (0xBD)-129 (0x81)
Формат : AC-3
Формат/Информация : Audio Coding 3
Расширение режима : CM (complete main)
Параметр Endianness формата : Big
Режим смешивания : DVD-Video
Продолжительность : 18 м.
Вид битрейта : Постоянный
Битрейт : 448 Кбит/сек
Каналы : 6 каналов
Расположение каналов : Front: L C R, Side: L R, LFE
Частота : 48,0 КГц
Битовая глубина : 16 бит
Метод сжатия : С потерями
Размер потока : 60,0 Мбайт (6%)
Текст #1
Идентификатор : 189 (0xBD)-32 (0x20)
Формат : RLE
Формат/Информация : Run-length encoding
Режим смешивания : DVD-Video
Продолжительность : 18 м.
Задержка видео : 9 с. 676 мс.
Текст #2
Идентификатор : 189 (0xBD)-33 (0x21)
Формат : RLE
Формат/Информация : Run-length encoding
Режим смешивания : DVD-Video
Продолжительность : 18 м.
Задержка видео : 9 с. 709 мс.
Текст #3
Идентификатор : 189 (0xBD)-34 (0x22)
Формат : RLE
Формат/Информация : Run-length encoding
Режим смешивания : DVD-Video
Продолжительность : 18 м.
Задержка видео : 9 с. 276 мс.

Скриншоты меню


Скриншоты

Скриншоты доп. материалов




-
-Нимфоманка: Часть 1-2 / Nymphomaniac: Vol. I-II «Забудь о любви»Часть 2 / Vol. 2 Страна:Дания, Германия, Франция, Бельгия
Студия:Zentropa Entertainments.
Жанр:Драма
Год выпуска:2013
Продолжительность:02:03:30
Перевод 1:Авторский (одноголосый закадровый) Юрий СербинПеревод 2:Субтитры
Cубтитры:Английские, Испанские, Русские
Оригинальная аудиодорожка:Английский
Премьера (мир):25.12.2013
Режиссер:Ларс фон Триер / Lars von TrierВ ролях:Шарлотта Генсбур, Стеллан Скарсгард, Шайа ЛаБаф, Джейми Белл, Стэйси Мартин, Уиллем Дефо, Миа Гот, Жан-Марк Барр, Майкл Пас, Кристиан Слэйтер
Описание:Продолжение истории нимфоманки по имени Джо, чья жизнь была полна множества эротических переживаний, впечатлений и опытов. Она рассказывает о себе немолодому одинокому холостяку Селигману, который наткнулся на нее, избитую и находящуюся в полубессознательном состоянии, в переулке, доставил к себе домой и выходил…
Доп. информация:Исходник найден в сети.
Авторский (одноголосый, закадровый) Юрий СербинРеавторинг Нордер.Огромное Спасибо Всем, без чьей помощи этот релиз не состоялся бы!Сценарий:Ларс фон ТриерПродюсер:Мария Сесилия Гаде, Луиза Вест, Беттина БрокемперОператор:Мануэль Альберто Кларо
Художник:Александр Шерер
Монтаж:Якоб Сечер Шульзингер, Молли Марлен Стенсгаард
Фон Триер, Ларс-https://ru.wikipedia.org/wiki/Фон_Триер,_Ларс Фильм-https://ru.wikipedia.org/wiki/Нимфоманка_(фильм)Знаете ли вы, что...">

Это интересноФон Триер, Ларс-https://ru.wikipedia.org/wiki/Фон_Триер,_Ларс Фильм-https://ru.wikipedia.org/wiki/Нимфоманка_(фильм)Знаете ли вы, что...


Награды и номинации

Награды и номинации
2014 — премия «Бодил» за лучшую женскую роль (Шарлотта Генсбур), а также 5 номинаций: лучший фильм (Ларс фон Триер), лучшая мужская роль (Стеллан Скарсгорд), лучшая женская роль (Стэйси Мартин), лучшая женская роль второго плана (Ума Турман), лучшая мужская роль второго плана (Джейми Белл).
2014 — номинация на кинопремию Северного Совета (Ларс фон Триер).
2014 — 3 номинации на премию Европейской киноакадемии: лучший фильм, лучшая мужская роль (Стеллан Скарсгард), лучшая женская роль (Шарлотта Генсбур).

Рецензия

Софт

PGCDemux (извлечение).
BeSweet, Sony Vegas 9 (звук).
DVD-lab PRO 2, Subtitle Workshop (субтитры).
MuxMan (сборка). DvdReMakePro (финал).

Бонусы:(Без перевода)

Возраст: 18+Меню:Английский, анимированное, озвученное.Сэмпл :http://multi-up.com/1020437
Тип релиза:DVD9 (Custom)
Контейнер:DVD-Video
Видео:NTSC 16:9 (720x480) VBR, Auto Letterboxed, 6449 Кбит/сек, 23,976 кадра/сек
Аудио 1:Русский:AC3, 6 ch, 48.0 KHz, 448 Кбит/сек / Авторский (Одноголосый, закадровый) Ю.Сербин
Аудио 2:Английский:AC3, 6 ch, 48.0 KHz, 448 Кбит/сек / (Оригинал)
Формат субтитров:prerendered (DVD/IDX+SUB)

Dvd Info


Title: DISC_2
Size: 7.77 Gb ( 8 147 532,00 KBytes ) - DVD-9
Enabled regions: 1, 2, 3, 4, 5, 6, 7, 8
VTS_01 :
Play Length: 02:03:30
Video: NTSC 16:9 (720x480) VBR, Auto Letterboxed
Audio:
Russian (Dolby AC3, 6 ch)
English (Dolby AC3, 6 ch)
Subtitles:
English
Espanol
Russian
VTS_02 :
Play Length: 00:08:50
Video: NTSC 16:9 (720x480) VBR, Auto Letterboxed
Audio:
English (Dolby AC3, 2 ch)
VTS_03 :
Play Length: 00:07:12
Video: NTSC 16:9 (720x480) VBR, Auto Letterboxed
Audio:
English (Dolby AC3, 2 ch)
VTS_04 :
Play Length: 00:01:45
Video: NTSC 16:9 (720x480) VBR, Auto Letterboxed
Audio:
English (Dolby AC3, 6 ch)
VTS_05 :
Play Length: 00:00:12
Video: NTSC 16:9 (720x480) VBR, Auto Letterboxed
Audio:
English (Dolby AC3, 2 ch)
VTS_06 :
Play Length: 00:00:09
Video: NTSC 16:9 (720x480) VBR, Auto Pan&Scan
Audio:
English (Dolby AC3, 2 ch)
VTS_07 :
Play Length: 00:02:08
Video: NTSC 16:9 (720x480) VBR, Auto Letterboxed
Audio:
English (Dolby AC3, 6 ch)
VTS_08 :
Play Length: 00:02:08
Video: NTSC 16:9 (720x480) VBR, Auto Letterboxed
Audio:
English (Dolby AC3, 6 ch)
VTS_09 :
Play Length: 00:02:12
Video: NTSC 16:9 (720x480) VBR, Auto Letterboxed
Audio:
English (Dolby AC3, 6 ch)
VTS_10 :
Play Length: 00:02:23
Video: NTSC 16:9 (720x480) VBR, Auto Letterboxed
Audio:
English (Dolby AC3, 6 ch)
VTS_11 :
Play Length: 00:02:13
Video: NTSC 16:9 (720x480) VBR, Auto Letterboxed
Audio:
English (Dolby AC3, 6 ch)
VTS_12 :
Play Length: 00:00:32
Video: NTSC 16:9 (720x480) VBR, Auto Letterboxed
Audio:
English (Dolby AC3, 2 ch)
VTS_13 :
Play Length: 00:00:12
Video: NTSC 16:9 (720x480) VBR, Auto Letterboxed
Audio:
English (Dolby AC3, 2 ch)
VTS_14 :
Play Length: 00:00:13
Video: NTSC 16:9 (720x480) VBR, Auto Pan&Scan
Audio:
English (Dolby AC3, 2 ch)

MediaInfo

Общее
Полное имя: F:\Nymphomaniac Vol I-II\DISC_2\VIDEO_TS\VTS_01_3.VOB
Формат : MPEG-PS
Размер файла : 1024 Мбайт
Продолжительность : 19 м.
Режим общего битрейта : Переменный
Общий поток : 7494 Кбит/сек
Видео
Идентификатор : 224 (0xE0)
Формат : MPEG Video
Версия формата : Version 2
Профиль формата : Main@Main
Параметр BVOP формата : Да
Параметр матрицы формата : Выборочная
Параметр GOP формата : Variable
Продолжительность : 19 м.
Вид битрейта : Переменный
Битрейт : 6449 Кбит/сек
Максимальный битрейт : 9800 Кбит/сек
Ширина : 720 пикселей
Высота : 480 пикселей
Соотношение сторон : 16:9
Частота кадров : 23,976 кадра/сек
Стандарт вещания : NTSC
Цветовое пространство : YUV
Субдискретизация насыщенности : 4:2:0
Битовая глубина : 8 бит
Тип развёртки : Прогрессивная
Порядок развёртки : 2:3 Pulldown
Метод сжатия : С потерями
Бит/(Пиксели*Кадры) : 0.778
Временной код первого кадра : 01:40:32;25
Оригинал временного кода : Group of pictures header
Размер потока : 881 Мбайт (86%)
Аудио #1
Идентификатор : 189 (0xBD)-128 (0x80)
Формат : AC-3
Формат/Информация : Audio Coding 3
Расширение режима : CM (complete main)
Параметр Endianness формата : Big
Режим смешивания : DVD-Video
Продолжительность : 19 м.
Вид битрейта : Постоянный
Битрейт : 448 Кбит/сек
Каналы : 6 каналов
Расположение каналов : Front: L C R, Side: L R, LFE
Частота : 48,0 КГц
Битовая глубина : 16 бит
Метод сжатия : С потерями
Задержка видео : -568 мс.
Размер потока : 61,2 Мбайт (6%)
Аудио #2
Идентификатор : 189 (0xBD)-129 (0x81)
Формат : AC-3
Формат/Информация : Audio Coding 3
Расширение режима : CM (complete main)
Параметр Endianness формата : Big
Режим смешивания : DVD-Video
Продолжительность : 19 м.
Вид битрейта : Постоянный
Битрейт : 448 Кбит/сек
Каналы : 6 каналов
Расположение каналов : Front: L C R, Side: L R, LFE
Частота : 48,0 КГц
Битовая глубина : 16 бит
Метод сжатия : С потерями
Задержка видео : -568 мс.
Размер потока : 61,2 Мбайт (6%)
Текст #1
Идентификатор : 189 (0xBD)-32 (0x20)
Формат : RLE
Формат/Информация : Run-length encoding
Режим смешивания : DVD-Video
Текст #2
Идентификатор : 189 (0xBD)-33 (0x21)
Формат : RLE
Формат/Информация : Run-length encoding
Режим смешивания : DVD-Video
Текст #3
Идентификатор : 189 (0xBD)-34 (0x22)
Формат : RLE
Формат/Информация : Run-length encoding
Режим смешивания : DVD-Video

Скриншоты меню


Скриншоты

Скриншоты доп. материалов



[teatrix.ru].t7267.torrent 
Торрент: Зарегистрирован [ 2015-10-11 11:22 ] · 09628D8EEA084E411D8E46FF08D22BEFFE493D58

Скачать .torrent

Скачать

83 KB

Статус: проверено
Скачан: 0 раз
Размер: 14.85 GB
terms.php



Быстрый ответ

Имя:

      
Для отправки сообщений необходимо включить JavaScript
Показать сообщения:    

Текущее время: 04-Дек 13:14

Часовой пояс: UTC + 3


Вы можете начинать темы
Вы можете отвечать на сообщения
Вы не можете редактировать свои сообщения
Вы не можете удалять свои сообщения
Вы не можете голосовать в опросах
Вы не можете прикреплять файлы к сообщениям
Вы можете скачивать файлы